Нащадки сонця (Серії 16\16) / Descendants of the Sun / 태양의 후예 (2016) 720p Kor | sub Ukr

Нові коментарі

Нова тема   Відповісти
Автор Повідомлення
vitexdp 
Частий відвідувач


З нами з: 09.07.14
Востаннє: 21.08.17
Повідомлень: 34

2017-02-06 17:01  
Нащадки сонця (Серії 16\16) / Descendants of the Sun / 태양의 후예 (2016) 720p Kor | sub Ukr

Нащадки сонця (Серії 16) / Descendants of the Sun / 태양의 후예 (2016) 720p Kor | sub Ukr


Жанр: романтичний, бойовик, драма
Країна: Південна Корея



Кінокомпанія: KBS2
Режисер: Лі Юн Бук
Актори: Сон Чжун Кі, Сон Хе Кьо, Чжін Гу, Кім Чжі Вон

Сюжет:
Миротворчі війська в гарячій точці, серед полум'я бойових дій зустрічаються двоє людей. Він - капітан Ю Ші Чжін, а вона - лікар Кан Мо Йон. Це історія їхнього кохання на фоні воєнних дій.


Тривалість: 01:00:00
Якість:
Відео:
кодек:
розмір кадру: 1280 x 720
бітрейт: 1 644 кб/с

Аудіо:
мова: корейська
переклад: оригінал
кодек: WAV (PCM)
бітрейт: 1 536 кб/с

Субтитри:
мова: українська
тип: вбудовані
Скріншоти




Медіаінфо

General
Complete name : [Bambooua] Нащадки сонця - 1 Серія (українські субтитри).avi
Format : AVI
Format/Info : Audio Video Interleave
File size : 1.32 GiB
Duration : 59 min 15 s
Overall bit rate : 3 192 kb/s
Writing library : VirtualDub build 35491/release

Video
ID : 0
Format : MPEG-4 Visual
Format profile : Advanced [email protected]
Format settings, BVOP : 2
Format settings, QPel : No
Format settings, GMC : No warppoints
Format settings, Matrix : Default (H.263)
Muxing mode : Packed bitstream
Codec ID :
Codec ID/Hint :
Duration : 59 min 15 s
Bit rate : 1 644 kb/s
Width : 1 280 pixels
Height : 720 pixels
Display aspect ratio : 16:9
Frame rate : 29.970 (29970/1000) FPS
Color space : YUV
Chroma subsampling : 4:2:0
Bit depth : 8 bits
Scan type : Progressive
Compression mode : Lossy
Bits/(Pixel*Frame) : 0.060
Stream size : 697 MiB (52%)
Writing library : 73

Audio
ID : 1
Format : PCM
Format settings, Endianness : Little
Format settings, Sign : Signed
Codec ID : 1
Duration : 59 min 15 s
Bit rate mode : Constant
Bit rate : 1 536 kb/s
Channel(s) : 2 channels
Sampling rate : 48.0 kHz
Bit depth : 16 bits
Stream size : 651 MiB (48%)
Alignment : Aligned on interleaves
Interleave, duration : 33 ms (1.00 video frame)
Interleave, preload duration : 500 ms
Джерело: Bamboo.ua, переклад Jastinnne
Особиста оцінка: 0 - не дивився


Золотий реліз (завантажене не впливає на рейтинг)
 Трекер:    Зареєстрований   

Завантажити / скачати серіал українською



відео для новачків



 Зареєстрований:   2017-02-06 17:33
 Розмір:   16.34 GB 
 Оцінка серіалу:   10/10 (Голосів: 1)
   
Ваш часовий пояс: GMT + 2 Години

Нова тема   Відповісти