Гарно жити не заборониш / Absolutely Fabulous: The Movie (2016) Remux 1080p Ukr/Eng | Sub Ukr/Eng

Нові коментарі

Нова тема   Відповісти
Автор Повідомлення
staf777 
Відео Гуртом - підтримка та поширення
Відео Гуртом - підтримка та поширення


З нами з: 16.11.16
Востаннє: 20.05.19
Повідомлень: 2361

2017-02-05 22:36  
Гарно жити не заборониш / Absolutely Fabulous: The Movie (2016) Remux 1080p Ukr/Eng | Sub Ukr/Eng

Гарно жити не заборониш / Absolutely Fabulous: The Movie (2016) Remux 1080p Ukr/Eng | Sub Ukr/Eng
Оригінальний постер

Гарно жити не заборониш / Absolutely Fabulous: The Movie (2016) Remux 1080p Ukr/Eng | Sub Ukr/Eng
Жанр: комедія
Країна: Великобританія, США



Кінокомпанія: British Film Company, Fox Searchlight Pictures
Режисер: Менді Флетчер
Актори: Гвендолін Крісті, Кара Делевінь, Джон Хемм, Ребел Вілсон, Джоан Коллінз, Джоенна Ламлі, Дженніфер Сoндерс

Сюжет:
Едіна і Петсі живуть розкішним життям, до якого звикли: займаючись шопінгом, випиваючи і ходячи по трендовим клубам Лондона. Звинувачені у великому інциденті на убер-модній вечірці, вони виявляються заплутаними в медіа штормі і безжально переслідувані папараціями. Рятуючись без гроша в кишені і потрапивши на гламурний майданчик до супер-багатих на Французьку Рів'єру, вони придумують план, щоб їх втеча стала постійною, і вони продовжили жити шикарним життям навіки!


Тривалість: 01:30:55
Якість: Remux 1080p
Відео:
кодек:
розмір кадру: 1920x1080
бітрейт: 34425 кб/с

Аудіо # 1:
мова: українська
переклад: професійний дубльований
кодек: 2.0
бітрейт: 192 кб/с

Аудіо # 2:
мова: англійська
переклад: оригінал
кодек: -HD MA 5.1
бітрейт: 3998 кб/с

Аудіо # 3:
мова: англійська
переклад: описова
кодек: 5.1
бітрейт: 448 кб/с

Субтитри #1:
мова: українська
тип: пререндерні
формат: PGS

Субтитри #2:
мова: англійська
тип: пререндерні
формат: PGS
Info
General
Unique ID : 252490736762365263799082866927413924401 (0xBDF3F27298B290039CDEE27C509E9231)
Complete name : P:\HDClub\ABSOLUTELY_FABULOUS_THE_MOVIE_REMUX_HDCLUB\BDMV\STREAM\Absolutely Fabulous The Movie (2016) [Ukr,Eng sub.Ukr,Eng] Remux 1080p [Hurtom].
Format :
Format version : Version 4 / Version 2
File size : 24.8 GiB
Duration : 1 h 30 min
Overall bit rate mode : Variable
Overall bit rate : 39.1 Mb/s
Movie name : Absolutely Fabulous: The Movie (2016) [Ukr,Eng sub.Ukr,Eng] Remux 1080p [Hurtom]
Encoded date : UTC 2017-02-05 19:46:36
Writing application : v9.8.0 ('Kuglblids') 64bit
Writing library : libebml v1.3.4 + v1.4.5

Video
ID : 1
Format : AVC
Format/Info : Advanced Video Codec
Format profile : [email protected]
Format settings, CABAC : Yes
Format settings, ReFrames : 4 frames
Codec ID : V_MPEG4/ISO/AVC
Duration : 1 h 30 min
Bit rate mode : Variable
Bit rate : 34.4 Mb/s
Maximum bit rate : 36.5 Mb/s
Width : 1 920 pixels
Height : 1 080 pixels
Display aspect ratio : 16:9
Frame rate mode : Constant
Frame rate : 23.976 (24000/1001) FPS
Color space : YUV
Chroma subsampling : 4:2:0
Bit depth : 8 bits
Scan type : Progressive
Bits/(Pixel*Frame) : 0.692
Stream size : 21.9 GiB (88%)
Default : Yes
Forced : No

Audio #1
ID : 2
Format : AC-3
Format/Info : Audio Coding 3
Mode extension : CM (complete main)
Format settings, Endianness : Big
Codec ID : A_AC3
Duration : 1 h 30 min
Bit rate mode : Constant
Bit rate : 192 kb/s
Channel(s) : 2 channels
Channel positions : Front: L R
Sampling rate : 48.0 kHz
Frame rate : 31.250 FPS (1536 spf)
Bit depth : 16 bits
Compression mode : Lossy
Stream size : 125 MiB (0%)
Language : Ukrainian
Default : Yes
Forced : Yes

Audio #2
ID : 3
Format :
Format/Info : Digital Theater Systems
Format profile : MA / Core
Mode : 16
Format settings, Endianness : Big
Codec ID : A_DTS
Duration : 1 h 30 min
Bit rate mode : Variable / Constant
Bit rate : 3 998 kb/s / 1 509 kb/s
Channel(s) : 6 channels
Channel positions : Front: L C R, Side: L R, LFE
Sampling rate : 48.0 kHz
Frame rate : 93.750 FPS (512 spf)
Bit depth : 24 bits
Compression mode : Lossless / Lossy
Stream size : 2.54 GiB (10%)
Language : English
Default : No
Forced : No

Audio #3
ID : 4
Format : AC-3
Format/Info : Audio Coding 3
Mode extension : CM (complete main)
Format settings, Endianness : Big
Codec ID : A_AC3
Duration : 1 h 30 min
Bit rate mode : Constant
Bit rate : 448 kb/s
Channel(s) : 6 channels
Channel positions : Front: L C R, Side: L R, LFE
Sampling rate : 48.0 kHz
Frame rate : 31.250 FPS (1536 spf)
Bit depth : 16 bits
Compression mode : Lossy
Stream size : 291 MiB (1%)
Language : English
Default : No
Forced : No

Text #1
ID : 5
Format : PGS
Muxing mode : zlib
Codec ID : S_HDMV/PGS
Codec ID/Info : Picture based subtitle format used on BDs/HD-DVDs
Duration : 1 h 30 min
Bit rate : 24.2 kb/s
Count of elements : 2496
Stream size : 15.6 MiB (0%)
Language : Ukrainian
Default : No
Forced : Yes

Text #2
ID : 6
Format : PGS
Muxing mode : zlib
Codec ID : S_HDMV/PGS
Codec ID/Info : Picture based subtitle format used on BDs/HD-DVDs
Duration : 1 h 30 min
Bit rate : 16.5 kb/s
Count of elements : 3816
Stream size : 10.7 MiB (0%)
Language : English
Default : No
Forced : No
Скріншоти





Джерело: &
Особиста оцінка: 0 - не дивився
ЗАЛИШАЙТЕСЬ ЯКОМОГА ДОВШЕ НА РОЗДАЧІ!

СКАЧАВ САМ - ДАЙ СКАЧАТИ ІНШИМ



Золотий реліз (завантажене не впливає на рейтинг)
 Трекер:    Зареєстрований   

Завантажити / скачати фільм українською



відео для новачків



 Зареєстрований:   2017-02-06 00:13
 Розмір:   24.83 GB 
 Оцінка фільму:   8.4/10 (Голосів: 8)
   
bot 
робот


З нами з: 30.09.07
Востаннє: 26.05.05
Повідомлень: 21356

2017-02-06 00:12  
Тему перенесено з Анонси релізів до форуму Фільми в HD


staf777

Ваш часовий пояс: GMT + 2 Години

Нова тема   Відповісти