Сила Вольтрона / Voltron Force (Сезон 1) (2011) AVC

Нові коментарі

Нова тема   Відповісти
Останній раз роздавалося sergiyko.5 (2017-10-21)
Автор Повідомлення
sergiyko.5 
VIP


З нами з: 25.02.16
Востаннє: 22.10.17
Повідомлень: 1136

2017-02-05 12:20  
Сила Вольтрона / Voltron Force (Сезон 1) (2011) AVC

Сила Вольтрона / Voltron Force (Сезон 1) (2011) AVC

Жанр: мультсеріал, фантастика, екшн
Країна: США
Виробництво:World Events Productions
Режисер: Джон Делані, Стівен E. Гордон
Актори: Джиллз Пентон. Сем Вінсент, Ендрю Френсіс, Ешлі Белл, Вінсент Тонг, Дорон Белл, Шеннон Чан-Кент, Рон Халдер, Марк Хілдрет

Сюжет:
Продовження популярного мультсеріалу 80-х - Voltron Force (2011). Пригоди знайомих з дитинства героїв тривають. Кейт, Ленс, принцеса Аллура, Піджен і Ханк як і раніше готові захищати Всесвіт. До них приєднуються нові кадети, чиї загадкові сили несуть в собі чимало сюрпризів. Всім разом їм належить битися зі старими і новими ворогами.




Тривалість: 1 серія: 22:00 (цілком серій: 26)
Якість:

Відео: кодек: розмір кадру: 720 х 408 бітрейт: 1100 кб/с
Аудіо # 1: мова: українська переклад: багатоголосий закадровий кодек: 2.0 бітрейт: 192 кб/с
Джерело озвучення:
Перелік серій
01. Нові юні захисники / New School Defenders
02. Захисники Аруса / Defenders of Arus
03. Захисники Всесвіту / Defenders of the Universe
04. Коран / Coran, Coran
05. Подорож на планету Дум / Joyride to Doom
06. Подвір'я Ханка / The Hunkyard
07. Повернення левових вершників / Lion Riders Return
08. Швидкий мов блискавка / Flash Forms a Go
09. Глибоко в океані / Dark Blue
10. Бажані і небажані / Wanted and Unwanted
11. Хижак Робіст / Predator Robeast
12. Потреба у Вольтроні / Hungry for Voltron
13. Протистояння левів / Clash of the Lions
14. Всередені музики / Inside the Music
15. Неймовірна подорож / Rogue Trip
16. Мізки / Brains
17. Привид у леві / Ghost in the Lion
18. Гері / Gary
19. Підкована п'ятірка / Five Forged
20. Драден, дитинко це Драден / Dradin,Baby,Dradin
21. Я Вольтрон / I, Voltron
22. Перехоплені сигнали / Crossed Signals
23. Коріння зла / Roots of Evil
24. Армія лоторів / The Army Of One
25. Поділяй і пануй / Deceive and Conquer
26. Чорний / Black
Про файл:
General
Unique ID : 198572615659948315594314058412792538937 (0x9563B1D5773CFBC785E17D02E620E739)
Complete name : D:\Torrents\Voltron Force S01 \Voltron.Force.S01E02.The.Trilogy.Part.II.Defenders.of.Arus..
Format :
Format version : Version 2
File size : 219 MiB
Duration : 22mn 15s
Overall bit rate : 1 376 Kbps
Encoded date : UTC 2017-02-04 20:57:08
Writing application : mkvmerge v8.5.2 ('Crosses') 32bit
Writing library : libebml v1.3.3 + libmatroska v1.4.4
DURATION : 00:22:15.456000000
NUMBER_OF_FRAMES : 41733
NUMBER_OF_BYTES : 32050944
_STATISTICS_WRITING_APP : mkvmerge v8.5.2 ('Crosses') 32bit
_STATISTICS_WRITING_DATE_UTC : 2017-02-04 20:57:08
_STATISTICS_TAGS : BPS DURATION NUMBER_OF_FRAMES NUMBER_OF_BYTES

Video
ID : 1
Format : AVC
Format/Info : Advanced Video Codec
Format profile : [email protected]
Format settings, CABAC : Yes
Format settings, ReFrames : 10 frames
Codec ID : V_MPEG4/ISO/AVC
Duration : 22mn 15s
Bit rate : 1 157 Kbps
Width : 720 pixels
Height : 408 pixels
Display aspect ratio : 16:9
Frame rate mode : Constant
Frame rate : 25.000 fps
Color space : YUV
Chroma subsampling : 4:2:0
Bit depth : 8 bits
Scan type : Progressive
Bits/(Pixel*Frame) : 0.158
Stream size : 184 MiB (84%)
Title : Voltron Force rip by sergiyko
Writing library : core 146 r2538 121396c
Encoding settings : cabac=1 / ref=10 / deblock=1:0:0 / analyse=0x3:0x113 / me=umh / subme=8 / psy=1 / psy_rd=0.40:0.00 / mixed_ref=1 / me_range=16 / chroma_me=1 / trellis=1 / 8x8dct=1 / cqm=0 / deadzone=21,11 / fast_pskip=1 / chroma_qp_offset=-2 / threads=6 / lookahead_threads=1 / sliced_threads=0 / nr=0 / decimate=1 / interlaced=0 / bluray_compat=0 / constrained_intra=0 / bframes=5 / b_pyramid=2 / b_adapt=2 / b_bias=0 / direct=3 / weightb=1 / open_gop=0 / weightp=2 / keyint=250 / keyint_min=25 / scenecut=40 / intra_refresh=0 / rc_lookahead=50 / rc=crf / mbtree=1 / crf=19.0 / qcomp=0.60 / qpmin=0 / qpmax=69 / qpstep=4 / vbv_maxrate=14000 / vbv_bufsize=14000 / crf_max=0.0 / nal_hrd=none / filler=0 / ip_ratio=1.40 / aq=1:0.60
Language : English
Default : Yes
Forced : No
DURATION : 00:22:15.480000000
NUMBER_OF_FRAMES : 33387
NUMBER_OF_BYTES : 197411093
_STATISTICS_WRITING_APP : mkvmerge v8.5.2 ('Crosses') 32bit
_STATISTICS_WRITING_DATE_UTC : 2017-02-04 20:57:08
_STATISTICS_TAGS : BPS DURATION NUMBER_OF_FRAMES NUMBER_OF_BYTES

Audio
ID : 2
Format : AC-3
Format/Info : Audio Coding 3
Mode extension : CM (complete main)
Format settings, Endianness : Big
Codec ID : A_AC3
Duration : 22mn 15s
Bit rate mode : Constant
Bit rate : 192 Kbps
Channel(s) : 2 channels
Channel positions : Front: L R
Sampling rate : 48.0 KHz
Compression mode : Lossy
Stream size : 30.6 MiB (14%)
Title : MOV 2ch | QTV
Language : Ukrainian
Default : Yes
Forced : No
Скріншоти:


Автор ріпів: sergiyko



Бронзовий реліз (на рейтинг впливає 75% завантаженого)
 Трекер:    Зареєстрований   

Завантажити / скачати мультфільм українською



відео для новачків



 Зареєстрований:   2017-02-05 12:20
 Розмір:   5.43 GB 
 Оцінка мультсеріалу:   10/10 (Голосів: 3)
   
Ваш часовий пояс: GMT + 2 Години

Нова тема   Відповісти