За взаємною згодою / Consenting Adults (1992) AVC Ukr/Eng

Нові коментарі

Нова тема   Відповісти
Останній раз роздавалося pollyub (2017-04-28)
Автор Повідомлення
Anonymous 







2017-02-04 23:54  
За взаємною згодою / Consenting Adults (1992) AVC Ukr/Eng

За взаємною згодою / Consenting Adults (1992) AVC Ukr/Eng


Жанр: трилер, драма, кримінальний
Країна: США

Рейтинг фільму: - 27%,

Підлітки до 16 років допускаються до фільму тільки у супроводі одного з батьків, або законного представника
Обмеження - до 16 років потрібний супровід батька або дорослого опікуна. Цей рейтинг показує, що оціночна комісія вирішила, що деякий матеріал цього фільму призначається для дорослих. Батьки повинні більше дізнатися про фільм перш, ніж узяти на його перегляд дітей. Рейтинг R також може бути призначений унаслідок використовуваної у фільмі мови, теми, насильства, сексу або зображення вживання наркотиків.
Кінокомпанія: Hollywood Pictures, Touchwood Pacific Partners 1, Permut Presentations
Режисер: Алан Пакула
Актори: Кевін Клайн, Мері Елізабет Мастрантоніо, Кевін Спейсі, Ребекка Міллер та інші

Сюжет:
Звичайна вечеря в ресторані з друзями-сусідами не віщувала нічого незвичайного, але Едді і Річард вирішили повеселитися. Щоб урізноманітнити своє життя та надати йому гостроту відчуттів, за взаємною згодою чоловіки вирішили помінятися своїми дружинами на одну ніч. Всі згодні, ніхто не ображається і не ревнує. Однак, ніхто з компанії не припускав чим закінчиться ця ніч.


Тривалість: 01:38:57
Якість:
Відео:
кодек:
розмір кадру: 1120x624
бітрейт: 2579 кб/с

Аудіо # 1:
мова: українська
переклад: багатоголосий закадровий
кодек: 2.0
бітрейт: 192 кб/с

Аудіо # 2:
мова: англійська
переклад: оригінал
кодек: 2.0
бітрейт: 192 кб/с
Info
General
Unique ID : 223778180213368517017203065192067276382 (0xA85A1C1CFD3FFCB7B5804D8D8E2E9E5E)
Complete name : D:\Consenting Adults.1992.AVC [Ukr, Eng].
Format :
Format version : Version 4 / Version 2
File size : 2.05 GiB
Duration : 1h 38mn
Overall bit rate : 2 965 Kbps
Encoded date : UTC 2017-02-04 20:37:36
Writing application : mkvmerge v9.3.1 ('Mask Machine') 64bit
Writing library : libebml v1.3.4 + libmatroska v1.4.5
DURATION : 01:38:56.960000000
NUMBER_OF_FRAMES : 185530
NUMBER_OF_BYTES : 142487040
_STATISTICS_WRITING_APP : mkvmerge v9.3.1 ('Mask Machine') 64bit
_STATISTICS_WRITING_DATE_UTC : 2017-02-04 20:37:36
_STATISTICS_TAGS : BPS DURATION NUMBER_OF_FRAMES NUMBER_OF_BYTES

Video
ID : 1
Format : AVC
Format/Info : Advanced Video Codec
Format profile : [email protected]
Format settings, CABAC : Yes
Format settings, ReFrames : 12 frames
Codec ID : V_MPEG4/ISO/AVC
Duration : 1h 38mn
Bit rate : 2 579 Kbps
Width : 1 120 pixels
Height : 624 pixels
Display aspect ratio : 16:9
Frame rate mode : Constant
Frame rate : 23.976 fps
Color space : YUV
Chroma subsampling : 4:2:0
Bit depth : 8 bits
Scan type : Progressive
Bits/(Pixel*Frame) : 0.154
Stream size : 1.74 GiB (85%)
Writing library : core 119 r2106 07efeb4
Encoding settings : cabac=1 / ref=12 / deblock=1:-2:-1 / analyse=0x3:0x113 / me=umh / subme=11 / psy=1 / psy_rd=1.05:0.10 / mixed_ref=1 / me_range=32 / chroma_me=1 / trellis=2 / 8x8dct=1 / cqm=0 / deadzone=21,11 / fast_pskip=0 / chroma_qp_offset=-3 / threads=12 / sliced_threads=0 / nr=0 / decimate=0 / interlaced=0 / bluray_compat=0 / constrained_intra=0 / bframes=10 / b_pyramid=2 / b_adapt=2 / b_bias=0 / direct=3 / weightb=1 / open_gop=0 / weightp=2 / keyint=250 / keyint_min=23 / scenecut=40 / intra_refresh=0 / rc_lookahead=60 / rc=2pass / mbtree=1 / bitrate=2579 / ratetol=1.0 / qcomp=0.70 / qpmin=0 / qpmax=69 / qpstep=4 / cplxblur=20.0 / qblur=0.5 / ip_ratio=1.40 / aq=1:1.00
Language : English
Default : Yes
Forced : No
DURATION : 01:38:56.973000000
NUMBER_OF_FRAMES : 142345
NUMBER_OF_BYTES : 1914183378
_STATISTICS_WRITING_APP : mkvmerge v9.3.1 ('Mask Machine') 64bit
_STATISTICS_WRITING_DATE_UTC : 2017-02-04 20:37:36
_STATISTICS_TAGS : BPS DURATION NUMBER_OF_FRAMES NUMBER_OF_BYTES

Audio #1
ID : 2
Format : AC-3
Format/Info : Audio Coding 3
Mode extension : CM (complete main)
Format settings, Endianness : Big
Codec ID : A_AC3
Duration : 1h 38mn
Bit rate mode : Constant
Bit rate : 192 Kbps
Channel(s) : 2 channels
Channel positions : Front: L R
Sampling rate : 48.0 KHz
Compression mode : Lossy
Stream size : 136 MiB (6%)
Title : Багатоголосий Закадровий | 1+1 |
Language : Ukrainian
Default : Yes
Forced : No

Audio #2
ID : 3
Format : AC-3
Format/Info : Audio Coding 3
Mode extension : CM (complete main)
Format settings, Endianness : Big
Codec ID : A_AC3
Duration : 1h 38mn
Bit rate mode : Constant
Bit rate : 192 Kbps
Channel(s) : 2 channels
Channel positions : Front: L R
Sampling rate : 48.0 KHz
Compression mode : Lossy
Stream size : 136 MiB (6%)
Title : Original
Language : English
Default : No
Forced : No
Скріншоти





Джерело: &
Особиста оцінка: 0 - не дивився
Подяка за українську звукову доріжку пану Electroz


Срібний реліз (на рейтинг впливає 50% завантаженого)
 Трекер:    Зареєстрований   

Завантажити / скачати фільм українською



відео для новачків



 Зареєстрований:   2017-02-04 23:55
 Розмір:   2.05 GB 
 Оцінка фільму:   2.5/10 (Голосів: 12)
   
Інші релізи
   За взаємною згодою / Consenting Adults (1992) Ukr/Eng Electroz  1 / 0   1.45 GB   2017-02-04 19:04 
Anonymous 







2017-02-04 23:56  
Знаю, що медіаінфо тут не обов'язкове, але я додав, бо воно ніколи не зайве Happy
Ваш часовий пояс: GMT + 2 Години

Нова тема   Відповісти