Водійські права / License to Drive (1988) Remux 1080p 2xUkr/Eng | Sub Eng

Нові коментарі

Нова тема   Відповісти
Автор Повідомлення
staf777 
Відео Гуртом - підтримка та поширення
Відео Гуртом - підтримка та поширення


З нами з: 16.11.16
Востаннє: 16.08.17
Повідомлень: 522

2017-02-03 13:53  
Водійські права / License to Drive (1988) Remux 1080p 2xUkr/Eng | Sub Eng

Водійські права / License to Drive (1988) Remux 1080p 2xUkr/Eng | Sub Eng

«Some guys get all the brakes!»



Жанр: комедія
Країна: США



Кіностудія / кінокомпанія: Davis Entertainment, Twentieth Century Fox Film Corporation
Режисер: Грег Біман
Актори: Корі Хайм, Корі Фельдман, Керол Кейн, Річард Мазур, Хізер Грем

Сюжет:
Молодіжна комедія про шістнадцятилітнього хлопця, який приховав від усіх, що не здав іспити на водіння автомобілем. Але завоювати серце без автомобіля в Америці майже неможливо, тому Лес наважується на відчайдушний вчинок, вночі він без дозволу бере кадилак свого дідуся. І ось починаються його нічні пригоди...


Тривалість: 01:29:51
Якість: Remux 1080p
Відео:
кодек:
розмір кадру: 1920x1080
бітрейт: 25.9 Mб/с

Аудіо # 1:
мова: українська
переклад: двоголосий закадровий
кодек: -HD MA 5.1
бітрейт: 3960 кб/с
Доріжка отримана накладенням чистого голосу на центр декодованого Dolby TrueHD

Аудіо # 2:
мова: українська
переклад: двоголосий закадровий
кодек: 2.0
бітрейт: 192 кб/с

Аудіо # 3:
мова: англійська
переклад: оригінал
кодек: TrueHD 5.1
бітрейт: 3353 кб/с

Аудіо # 4:
мова: англійська
переклад: оригінал
кодек: 5.1
бітрейт: 640 кб/с

Субтитри:
мова: англійська
тип: пререндерні
формат: PGS
Info
Код:
  General
Unique ID                                : 181074454398286479946265468983406240305 (0x8839ABE024FFE3009758708A71B82231)
Complete name                            : P:\HDClub\License.to.Drive.1988.1080p.Bluray.AVC.Remux.HDCLUB\BDMV\STREAM\License to Drive (1988) [2xUkr,Eng sub.Eng] Remux 1080p [Hurtom].
Format                                   :
Format version                           : Version 4 / Version 2
File size                                : 21.4 GiB
Duration                                 : 1 h 29 min
Overall bit rate mode                    : Variable
Overall bit rate                         : 34.2 Mb/s
Movie name                               : License to Drive (1988) [2xUkr,Eng sub.Eng] Remux 1080p [Hurtom]
Encoded date                             : UTC 2017-02-06 05:07:55
Writing application                      : mkvmerge v9.8.0 ('Kuglblids') 64bit
Writing library                          : libebml v1.3.4 + libmatroska v1.4.5

Video
ID                                       : 1
Format                                   : AVC
Format/Info                              : Advanced Video Codec
Format profile                           : [email protected]
Format settings, CABAC                   : Yes
Format settings, ReFrames                : 2 frames
Codec ID                                 : V_MPEG4/ISO/AVC
Duration                                 : 1 h 29 min
Bit rate mode                            : Variable
Bit rate                                 : 25.9 Mb/s
Width                                    : 1 920 pixels
Height                                   : 1 080 pixels
Display aspect ratio                     : 16:9
Frame rate mode                          : Constant
Frame rate                               : 23.976 (24000/1001) FPS
Color space                              : YUV
Chroma subsampling                       : 4:2:0
Bit depth                                : 8 bits
Scan type                                : Progressive
Bits/(Pixel*Frame)                       : 0.522
Stream size                              : 16.3 GiB (76%)
Default                                  : Yes
Forced                                   : No

Audio #1
ID                                       : 2
Format                                   :
Format/Info                              : Digital Theater Systems
Format profile                           : MA / Core
Mode                                     : 16
Format settings, Endianness              : Big
Codec ID                                 : A_DTS
Duration                                 : 1 h 29 min
Bit rate mode                            : Variable / Constant
Bit rate                                 : 3 960 kb/s / 1 509 kb/s
Channel(s)                               : 6 channels
Channel positions                        : Front: L C R, Side: L R, LFE
Sampling rate                            : 48.0 kHz
Frame rate                               : 93.750 FPS (512 spf)
Bit depth                                : 24 bits
Compression mode                         : Lossless / Lossy
Stream size                              : 2.49 GiB (12%)
Language                                 : Ukrainian
Default                                  : Yes
Forced                                   : Yes

Audio #2
ID                                       : 3
Format                                   : AC-3
Format/Info                              : Audio Coding 3
Mode extension                           : CM (complete main)
Format settings, Endianness              : Big
Codec ID                                 : A_AC3
Duration                                 : 1 h 29 min
Bit rate mode                            : Constant
Bit rate                                 : 192 kb/s
Channel(s)                               : 2 channels
Channel positions                        : Front: L R
Sampling rate                            : 48.0 kHz
Frame rate                               : 31.250 FPS (1536 spf)
Bit depth                                : 16 bits
Compression mode                         : Lossy
Stream size                              : 123 MiB (1%)
Language                                 : Ukrainian
Default                                  : No
Forced                                   : No

Audio #3
ID                                       : 4
Format                                   : TrueHD
Codec ID                                 : A_TRUEHD
Duration                                 : 1 h 29 min
Bit rate mode                            : Variable
Bit rate                                 : 3 353 kb/s
Maximum bit rate                         : 4 413 kb/s
Channel(s)                               : 6 channels
Channel positions                        : Front: L C R, Side: L R, LFE
Sampling rate                            : 48.0 kHz
Frame rate                               : 1 200.000 FPS (40 spf)
Compression mode                         : Lossless
Stream size                              : 2.10 GiB (10%)
Language                                 : English
Default                                  : No
Forced                                   : No

Audio #4
ID                                       : 5
Format                                   : AC-3
Format/Info                              : Audio Coding 3
Mode extension                           : CM (complete main)
Format settings, Endianness              : Big
Codec ID                                 : A_AC3
Duration                                 : 1 h 29 min
Bit rate mode                            : Constant
Bit rate                                 : 640 kb/s
Channel(s)                               : 6 channels
Channel positions                        : Front: L C R, Side: L R, LFE
Sampling rate                            : 48.0 kHz
Frame rate                               : 31.250 FPS (1536 spf)
Bit depth                                : 16 bits
Compression mode                         : Lossy
Stream size                              : 411 MiB (2%)
Language                                 : English
Default                                  : No
Forced                                   : No

Text
ID                                       : 6
Format                                   : PGS
Muxing mode                              : zlib
Codec ID                                 : S_HDMV/PGS
Codec ID/Info                            : Picture based subtitle format used on BDs/HD-DVDs
Duration                                 : 1 h 29 min
Bit rate                                 : 16.3 kb/s
Count of elements                        : 3021
Stream size                              : 10.5 MiB (0%)
Language                                 : English
Default                                  : No
Forced                                   : No     
Світлини






Джерело: &
Особиста оцінка: 0 - не дивився


Золотий реліз (завантажене не впливає на рейтинг)
 Трекер:    Зареєстрований   

Завантажити / скачати фільм українською



відео для новачків



 Зареєстрований:   2017-02-06 12:54
 Розмір:   21.45 GB 
 Оцінка фільму:   8.7/10 (Голосів: 3)
   
Інші релізи
MutuLI 
Відео Гуртом - фільмокрай
Відео Гуртом - фільмокрай


З нами з: 08.03.09
Востаннє: 18.08.17
Повідомлень: 1301

2017-02-03 19:01  
Новий канал якість звуку краща, але в 1+1 кращий переклад і озвучення.
PS. Не забудьте додати доріжку від 1+1.

PikachuUA 
Відео Гуртом - підтримка та поширення
Відео Гуртом - підтримка та поширення


З нами з: 17.01.15
Востаннє: 16.08.17
Повідомлень: 134

2017-02-04 18:30  
А звідки така якість укр. доріжки? На hdclub є така роздача, там пишуть що накладали чистий голос, а звідки він взявся? Був на блюрику?
igor911 
Відео Гуртом
Відео Гуртом


З нами з: 18.01.08
Востаннє: 19.08.17
Повідомлень: 7281

2017-02-06 14:34  
PikachuUA написано:
а звідки він взявся?

колись, начебто, був відомий пароль від фтп, де лежав чистий звук.

Ваш часовий пояс: GMT + 2 Години

Нова тема   Відповісти