Бодігард екшн (серій 16/16) / 더 케이투 / The K2 (2016) 720p Kor | sub Ukr

Нові коментарі

Нова тема   Відповісти
Автор Повідомлення
vitexdp 
Частий відвідувач


З нами з: 09.07.14
Востаннє: 18.08.17
Повідомлень: 34

2017-02-02 19:39  
Бодігард екшн (серій 16/16) / 더 케이투 / The K2 (2016) 720p Kor | sub Ukr

Бодігард екшн (серій 16/16) / 더 케이투 / The K2 (2016) 720p Kor | sub Ukr


Жанр: драма, екшн
Країна: Південна Корея



Кінокомпанія: tvN
Режисер: Квак Юн-хван
Актори: Чжі Чан Ук, Сон Юн А, Юна, Чо Сон Ха...

Сюжет:
K2, Кім Чже Ха (Чжі Чан Ук), колишній агент спецслужби, зраджений власними колегами. Елітний солдат, спортивний, володіє навичками бойових мистецтв, холодним розумом і сталевими нервами. Він отримує роботу охоронця Чхве Ю Чжін (Сон Юн А), дружини кандидата в президенти і дочки заможної сім'ї. За доброю і доброзичливою Чхве Ю Чжін ховається безжальна жінка з глибоким амбіціями, готова досягати свого за всяку ціну. На її дорозі до мети опинилася Ко Ан На (Юна), прихована дочка кандидата в президенти, яка через дитячу травму не в змозі спілкуватися зі світом і бачить любов лише як інструмент для помсти. Коли вона і Кім Чже Ха, обидві кинуті душі, зближуються - вирішують помститися своїм кривдникам. Чи зможуть вони відкласти свої власні травми в сторону і зосередитися? Або їхні емоційні шрами змусять їх зазнати невдачі в своєму прагненні до помсти?


Тривалість: 01:00:00 Серій 16 з 16
Якість:
Відео:
кодек:
розмір кадру: 1280 x 720
бітрейт: 2 815 кб/с

Аудіо:
мова: корейська
переклад: оригінал
кодек: 2.0
бітрейт: 192 кб/с

Субтитри:
мова: українська
тип: програмні (м'які)
формат: *.ass
Медіаінфо

General
Complete name : The.K2.E01.160923.720p-NEXT.mp4
Format : MPEG-4
Format profile : Base Media
Codec ID : isom (isom/iso2/avc1/mp41)
File size : 1.35 GiB
Duration : 1 h 4 min
Overall bit rate : 3 012 kb/s
Encoded date : UTC 1904-01-01 00:00:00
Tagged date : UTC 1904-01-01 00:00:00
Writing application : MH ENCODER

Video
ID : 1
Format : AVC
Format/Info : Advanced Video Codec
Format profile : [email protected]
Format settings, CABAC : Yes
Format settings, ReFrames : 3 frames
Format settings, GOP : M=4, N=30
Codec ID : avc1
Codec ID/Info : Advanced Video Coding
Duration : 1 h 4 min
Bit rate : 2 815 kb/s
Width : 1 280 pixels
Height : 720 pixels
Display aspect ratio : 16:9
Frame rate mode : Constant
Frame rate : 29.970 (30000/1001) FPS
Color space : YUV
Chroma subsampling : 4:2:0
Bit depth : 8 bits
Scan type : Progressive
Bits/(Pixel*Frame) : 0.102
Stream size : 1.26 GiB (93%)
Encoded date : UTC 1904-01-01 00:00:00
Tagged date : UTC 1904-01-01 00:00:00

Audio
ID : 2
Format :
Format/Info : Advanced Audio Codec
Format profile : LC
Codec ID : 40
Duration : 1 h 4 min
Bit rate mode : Constant
Bit rate : 192 kb/s
Channel(s) : 2 channels
Channel positions : Front: L R
Sampling rate : 48.0 kHz
Frame rate : 46.875 FPS (1024 spf)
Compression mode : Lossy
Stream size : 86.9 MiB (6%)
Default : Yes
Alternate group : 1
Encoded date : UTC 1904-01-01 00:00:00
Tagged date : UTC 1904-01-01 00:00:00
Скріншоти






Трейлер
Джерело: avistaz.to Субтитри: Staysi_I, KateKim, Jastinnne
Особиста оцінка: 0 - не дивився


Авторський реліз (завантажувати можна без реєстрації)
 Трекер:    Зареєстрований   

Завантажити / скачати серіал українською



відео для новачків



 Зареєстрований:   2017-02-02 19:39
 Розмір:   22.44 GB 
 Оцінка серіалу:   -/10 (Голосів: 0)
   
Patriot_ukr 
VIP


З нами з: 06.04.15
Востаннє: 17.08.17
Повідомлень: 1758

2017-02-02 19:45  
Додайте скріншоти з субтитрами.
vitexdp 
Частий відвідувач


З нами з: 09.07.14
Востаннє: 18.08.17
Повідомлень: 34

2017-02-02 19:50  
Patriot_ukr
додав, вибачаюсь забув що треба

11FrYkT 
Модератор відео


З нами з: 20.02.11
Востаннє: 17.08.17
Повідомлень: 3805

2017-02-02 20:18  
vitexdp , тіки вони мають бути у форматі PNG
vitexdp 
Частий відвідувач


З нами з: 09.07.14
Востаннє: 18.08.17
Повідомлень: 34

2017-02-02 20:29  
11FrYkT виправлено
leicheman 
Відео Гуртом - підтримка та поширення
Відео Гуртом - підтримка та поширення


З нами з: 03.07.14
Востаннє: 17.08.17
Повідомлень: 1044

2017-02-02 22:33  
З азіатів корейки мабуть найгарніші Happy
Дякую за серіал, ще не дивився нічого корейського . Хай це буде перше Wink (1)

Ваш часовий пояс: GMT + 2 Години

Нова тема   Відповісти