Дитинство лідера / The Childhood of a Leader (2015) Remux 1080p 2xUkr/Eng | Sub Eng

Нові коментарі

Нова тема   Відповісти
Останній раз роздавалося Gxost (2019-04-20)
Автор Повідомлення
staf777 
Відео Гуртом - підтримка та поширення
Відео Гуртом - підтримка та поширення


З нами з: 16.11.16
Востаннє: 20.04.19
Повідомлень: 2267

2017-02-02 15:18  
Дитинство лідера / The Childhood of a Leader (2015) Remux 1080p 2xUkr/Eng | Sub Eng

Дитинство лідера / The Childhood of a Leader (2015) Remux 1080p 2xUkr/Eng | Sub Eng
Оригінальний постер

Дитинство лідера / The Childhood of a Leader (2015) Remux 1080p 2xUkr/Eng | Sub Eng
Жанр: артхаус, драма, жахи, детектив
Країна: Велика Британія, Франція, Бельгія



Кінокомпанія: Bow and Arrow Entertainment, Bron Capital Partners, FilmTeam
Режисер: Брейді Корбет / Brady Corbet
Актори: Роберт Патінсон / Robert Pattinson, Береніс Бежо / Bérénice Bejo, Ліам Каннінгем / Liam Cunningham, Стейсі Мартін / Stacy Martin, Софі Кертіс / Sophie Lane Curtis, Ребекка Дайан / Rebecca Dayan, Скотт Александр Янг / Scott Alexander Young, Джеремі Вілер / Jeremy Wheeler, Керолайн Болтон / Caroline Boulton, Лука Берковічі / Luca Bercovici та інші

Сюжет:
Події драми розгортаються у Франції в 1918 році. У родині американського дипломата (Ліам Каннінгем) та його дружини (Береніс Бежо) підростає син на ім'я Прескотт (Том Світ, Роберт Паттінсон). Стаючи мимовільним свідком ділових розмов батька, хлопчик формує своє ставлення до світового порядку. Разом з цим, надмірний деспотизм батьків призводить до того, що з Прескотта виростає тиран і диктатор, рівних якому світ ще не бачив.


Тривалість: 01:56:01
Якість: Remux 1080p
Відео:
кодек:
бітрейт: 34,5 Mб/с

Аудіо # 1:
мова: українська
переклад: багатоголосий закадровий ААА-sound
кодек: 5.1
бітрейт: 384 кб/с

Аудіо # 2:
мова: українська
переклад: багатоголосий закадровий
кодек: 2.0
бітрейт: 192 кб/с

Аудіо # 3:
мова: англійська
переклад: оригінал
кодек: -HD MA 5.1
бітрейт: 3316 кб/с

Аудіо # 4:
мова: англійська
переклад: оригінал
кодек: -HD MA 2.0
бітрейт: 1996 кб/с

Аудіо # 5:
мова: англійська
переклад: коментарі режисера
кодек: 5.1
бітрейт: 448 кб/с

Субтитри #1-2:
мова: англійська
тип: пререндерні
формат: *.pgs
Info
General
Unique ID : 244828526713113840036835271205071812225 (0xB83042534F30CE3518A7E2B00D7AF681)
Complete name : P:\HD українською » Фільми в HD\Жахи\The Childhood of a Leader Remux 1080p [2xUKR] [ENG] [Hurtom].
Format :
Format version : Version 4 / Version 2
File size : 32.7 GiB
Duration : 1 h 56 min
Overall bit rate : 40.3 Mb/s
Movie name : The Childhood of a Leader Remux 1080p [2xUKR] [ENG] [Hurtom]
Encoded date : UTC 2018-12-14 12:02:31
Writing application : v24.0.0 ('Beyond The Pale') 64-bit
Writing library : libebml v1.3.6 + v1.4.9
Cover : Yes
Attachments : cover.jpg

Video
ID : 1
Format : AVC
Format/Info : Advanced Video Codec
Format profile : [email protected]
Format settings : CABAC / 4 Ref Frames
Format settings, CABAC : Yes
Format settings, ReFrames : 4 frames
Codec ID : V_MPEG4/ISO/AVC
Duration : 1 h 56 min
Bit rate mode : Constant
Bit rate : 34.5 Mb/s
Width : 1 920 pixels
Height : 1 080 pixels
Display aspect ratio : 16:9
Frame rate mode : Constant
Frame rate : 23.976 (24000/1001) FPS
Standard : NTSC
Color space : YUV
Chroma subsampling : 4:2:0
Bit depth : 8 bits
Scan type : Progressive
Bits/(Pixel*Frame) : 0.694
Stream size : 27.5 GiB (84%)
Default : Yes
Forced : No
Color range : Limited
Color primaries : BT.709
Transfer characteristics : BT.709
Matrix coefficients : BT.709

Audio #1
ID : 2
Format : AC-3
Format/Info : Audio Coding 3
Codec ID : A_AC3
Duration : 1 h 55 min
Bit rate mode : Constant
Bit rate : 384 kb/s
Channel(s) : 6 channels
Channel positions : Front: L C R, Side: L R, LFE
Sampling rate : 48.0 kHz
Frame rate : 31.250 FPS (1536 SPF)
Bit depth : 16 bits
Compression mode : Lossy
Stream size : 318 MiB (1%)
Language : Ukrainian
Service kind : Complete Main
Default : Yes
Forced : Yes

Audio #2
ID : 3
Format : AC-3
Format/Info : Audio Coding 3
Codec ID : A_AC3
Duration : 1 h 56 min
Bit rate mode : Constant
Bit rate : 192 kb/s
Channel(s) : 2 channels
Channel positions : Front: L R
Sampling rate : 48.0 kHz
Frame rate : 31.250 FPS (1536 SPF)
Bit depth : 16 bits
Compression mode : Lossy
Stream size : 159 MiB (0%)
Title : [UKR-MVO-CINE+]
Language : Ukrainian
Service kind : Complete Main
Default : No
Forced : No

Audio #3
ID : 4
Format :
Format/Info : Digital Theater Systems
Format profile : MA / Core
Codec ID : A_DTS
Duration : 1 h 56 min
Bit rate mode : Variable / Constant
Bit rate : 3 316 kb/s / 1 509 kb/s
Channel(s) : 6 channels
Channel positions : Front: L C R, Side: L R, LFE
Sampling rate : 48.0 kHz
Frame rate : 93.750 FPS (512 SPF)
Bit depth : 24 bits
Compression mode : Lossless / Lossy
Stream size : 2.69 GiB (8%)
Language : English
Default : No
Forced : No

Audio #4
ID : 5
Format :
Format/Info : Digital Theater Systems
Format profile : MA / Core
Codec ID : A_DTS
Duration : 1 h 56 min
Bit rate mode : Variable / Constant
Bit rate : 1 996 kb/s / 1 509 kb/s
Channel(s) : 2 channels
Channel positions : Front: L R
Sampling rate : 48.0 kHz
Frame rate : 93.750 FPS (512 SPF)
Bit depth : 24 bits
Compression mode : Lossless / Lossy
Stream size : 1.62 GiB (5%)
Language : English
Default : No
Forced : No

Audio #5
ID : 6
Format : AC-3
Format/Info : Audio Coding 3
Codec ID : A_AC3
Duration : 1 h 56 min
Bit rate mode : Constant
Bit rate : 448 kb/s
Channel(s) : 2 channels
Channel positions : Front: L R
Sampling rate : 48.0 kHz
Frame rate : 31.250 FPS (1536 SPF)
Bit depth : 16 bits
Compression mode : Lossy
Stream size : 372 MiB (1%)
Language : English
Service kind : Complete Main
Default : No
Forced : No

Text #1
ID : 7
Format : PGS
Muxing mode : zlib
Codec ID : S_HDMV/PGS
Codec ID/Info : Picture based subtitle format used on BDs/HD-DVDs
Duration : 1 h 33 min
Bit rate : 7 740 b/s
Count of elements : 436
Stream size : 5.17 MiB (0%)
Language : English
Default : No
Forced : No

Text #2
ID : 8
Format : PGS
Muxing mode : zlib
Codec ID : S_HDMV/PGS
Codec ID/Info : Picture based subtitle format used on BDs/HD-DVDs
Duration : 1 h 54 min
Bit rate : 24.7 kb/s
Count of elements : 1647
Stream size : 20.3 MiB (0%)
Language : English
Default : No
Forced : No
Скріншоти




За першу доріжку дякую пану AngryBirdsUA
За запис з Cine+ дякую пану Sando7 та пану Arsenfpu за синхронізацію
Джерело: &
Особиста оцінка: 0 - не дивився
ЗАЛИШАЙТЕСЬ ЯКОМОГА ДОВШЕ НА РОЗДАЧІ!

СКАЧАВ САМ - ДАЙ СКАЧАТИ ІНШИМ



Золотий реліз (завантажене не впливає на рейтинг)
 Трекер:    Зареєстрований   

Завантажити / скачати фільм українською



відео для новачків



 Зареєстрований:   2018-12-14 15:47
 Розмір:   32.7 GB 
 Оцінка фільму:   8.1/10 (Голосів: 14)
   
kabanchik_v 
Частий відвідувач


З нами з: 09.05.13
Востаннє: 14.04.19
Повідомлень: 29

2017-03-08 12:14  
Викладіть будь- ласка розміром до 1,5 Гб з оригінальною доріжкою, субтитрами та у форматі avi.
Дякую

staf777 
Відео Гуртом - підтримка та поширення
Відео Гуртом - підтримка та поширення


З нами з: 16.11.16
Востаннє: 20.04.19
Повідомлень: 2267

2018-12-14 15:52  
Додав доріжку від 
Едм 
VIP


З нами з: 18.05.08
Востаннє: 20.04.19
Повідомлень: 1236

2019-03-16 00:16  
відсутня кнопка imdb
Ваш часовий пояс: GMT + 2 Години

Нова тема   Відповісти