Некерований / Unstoppable (2010) Remux 1080p 2xUkr/Eng | Sub Ukr/Eng

Нові коментарі

Нова тема   Відповісти
Автор Повідомлення
staf777 
Відео Гуртом - підтримка та поширення
Відео Гуртом - підтримка та поширення


З нами з: 16.11.16
Востаннє: 25.05.19
Повідомлень: 2382

2017-02-01 00:05  
Некерований / Unstoppable (2010) Remux 1080p 2xUkr/Eng | Sub Ukr/Eng



Жанр: трилер, бойовик, драма
Країна: США



Кіностудія / кінокомпанія: Twentieth Century Fox Film Corporation
Режисер: Тоні Скотт
Актори: Дензел Вашингтон, Кріс Пайн, Розаріо Доусон, Джессі Шрем, Елізабет Метіс, ТіДжей Міллер, Етан Саплі, Кевін Данн та інші

Сюжет:
Група людей разом з молодим кондуктором намагається наздогнати і зупинити некерований поїзд, що перевозить токсичні хімікати.


Тривалість: 01:38:30
Якість: Remux 1080p
Відео:
кодек:
розмір кадру: 1920x1080
бітрейт: 32 Mб/с

Аудіо # 1:
мова: українська
переклад: професійний дубльований
кодек: 5.1
бітрейт: 448 кб/с

Аудіо # 2:
мова: українська
переклад: багатоголосий закадровий
кодек: 2.0
бітрейт: 192 кб/с

Аудіо # 2:
мова: англійська
переклад: оригінал
кодек: -HD MA 5.1
бітрейт: 3942 кб/с

Аудіо # 3:
мова: англійська
переклад: коментарі
кодек: 5.1
бітрейт: 448 кб/с

Аудіо # 4:
мова: англійська
переклад: Tracking the Story
кодек: 2.0
бітрейт: 224 кб/с

Субтитри # 1: (Forced)
мова: українська
тип: програмні (м'які)
формат: *.srt

Субтитри # 2: [Full]
мова: українська
тип: пререндерні
формат: PGS

Субтитри # 3-4:
мова: англійська
тип: пререндерні
формат: PGS
Info
General
Unique ID : 114168004233805358909555359300806210241 (0x55E3F532ACABC6179D1A30F9961772C1)
Complete name : P:\HD українською » Фільми в HD\Бойовик\Unstoppable (2010) Remux 1080p [2xUKR] [ENG] [Hurtom].
Format :
Format version : Version 4 / Version 2
File size : 25.7 GiB
Duration : 1 h 38 min
Overall bit rate mode : Variable
Overall bit rate : 37.3 Mb/s
Movie name : Unstoppable (2010) Remux 1080p [2xUKR] [ENG] [Hurtom]
Encoded date : UTC 2018-12-13 16:37:04
Writing application : v24.0.0 ('Beyond The Pale') 64-bit
Writing library : libebml v1.3.6 + v1.4.9
Cover : Yes
Attachments : cover.jpg

Video
ID : 1
Format : AVC
Format/Info : Advanced Video Codec
Format profile : [email protected]
Format settings : CABAC / 4 Ref Frames
Format settings, CABAC : Yes
Format settings, ReFrames : 4 frames
Codec ID : V_MPEG4/ISO/AVC
Duration : 1 h 38 min
Bit rate mode : Variable
Bit rate : 32.0 Mb/s
Maximum bit rate : 35.5 Mb/s
Width : 1 920 pixels
Height : 1 080 pixels
Display aspect ratio : 16:9
Frame rate mode : Constant
Frame rate : 23.976 (24000/1001) FPS
Color space : YUV
Chroma subsampling : 4:2:0
Bit depth : 8 bits
Scan type : Progressive
Bits/(Pixel*Frame) : 0.644
Stream size : 22.0 GiB (86%)
Default : Yes
Forced : No
Color range : Limited
Color primaries : BT.709
Transfer characteristics : BT.709
Matrix coefficients : BT.709

Audio #1
ID : 2
Format : AC-3
Format/Info : Audio Coding 3
Codec ID : A_AC3
Duration : 1 h 38 min
Bit rate mode : Constant
Bit rate : 448 kb/s
Channel(s) : 6 channels
Channel positions : Front: L C R, Side: L R, LFE
Sampling rate : 48.0 kHz
Frame rate : 31.250 FPS (1536 SPF)
Bit depth : 16 bits
Compression mode : Lossy
Stream size : 316 MiB (1%)
Language : Ukrainian
Service kind : Complete Main
Default : Yes
Forced : Yes

Audio #2
ID : 3
Format : AC-3
Format/Info : Audio Coding 3
Codec ID : A_AC3
Duration : 1 h 38 min
Bit rate mode : Constant
Bit rate : 192 kb/s
Channel(s) : 2 channels
Channel positions : Front: L R
Sampling rate : 48.0 kHz
Frame rate : 31.250 FPS (1536 SPF)
Bit depth : 16 bits
Compression mode : Lossy
Stream size : 135 MiB (1%)
Title : 2+2
Language : Ukrainian
Service kind : Complete Main
Default : No
Forced : No

Audio #3
ID : 4
Format :
Format/Info : Digital Theater Systems
Format profile : MA / Core
Codec ID : A_DTS
Duration : 1 h 38 min
Bit rate mode : Variable / Constant
Bit rate : 3 942 kb/s / 1 509 kb/s
Channel(s) : 6 channels
Channel positions : Front: L C R, Side: L R, LFE
Sampling rate : 48.0 kHz
Frame rate : 93.750 FPS (512 SPF)
Bit depth : 24 bits
Compression mode : Lossless / Lossy
Stream size : 2.71 GiB (11%)
Language : English
Default : No
Forced : No

Audio #4
ID : 5
Format : AC-3
Format/Info : Audio Coding 3
Codec ID : A_AC3
Duration : 1 h 38 min
Bit rate mode : Constant
Bit rate : 448 kb/s
Channel(s) : 6 channels
Channel positions : Front: L C R, Side: L R, LFE
Sampling rate : 48.0 kHz
Frame rate : 31.250 FPS (1536 SPF)
Bit depth : 16 bits
Compression mode : Lossy
Stream size : 316 MiB (1%)
Title : [коментарі]
Language : English
Service kind : Complete Main
Default : No
Forced : No

Audio #5
ID : 6
Format : AC-3
Format/Info : Audio Coding 3
Codec ID : A_AC3
Duration : 1 h 38 min
Bit rate mode : Constant
Bit rate : 224 kb/s
Channel(s) : 2 channels
Channel positions : Front: L R
Sampling rate : 48.0 kHz
Frame rate : 31.250 FPS (1536 SPF)
Bit depth : 16 bits
Compression mode : Lossy
Stream size : 158 MiB (1%)
Title : [Tracking the Story]
Language : English
Service kind : Complete Main
Default : No
Forced : No

Text #1
ID : 7
Format : UTF-8
Codec ID : S_TEXT/UTF8
Codec ID/Info : UTF-8 Plain Text
Duration : 1 h 23 min
Bit rate : 1 b/s
Count of elements : 12
Stream size : 723 Bytes (0%)
Title : (forced)
Language : Ukrainian
Default : Yes
Forced : Yes

Text #2
ID : 8
Format : PGS
Muxing mode : zlib
Codec ID : S_HDMV/PGS
Codec ID/Info : Picture based subtitle format used on BDs/HD-DVDs
Duration : 1 h 37 min
Bit rate : 42.7 kb/s
Count of elements : 2638
Stream size : 29.8 MiB (0%)
Language : Ukrainian
Default : No
Forced : No

Text #3
ID : 9
Format : PGS
Muxing mode : zlib
Codec ID : S_HDMV/PGS
Codec ID/Info : Picture based subtitle format used on BDs/HD-DVDs
Duration : 1 h 36 min
Bit rate : 45.2 kb/s
Count of elements : 2758
Stream size : 31.3 MiB (0%)
Language : English
Default : No
Forced : No

Text #4
ID : 10
Format : PGS
Muxing mode : zlib
Codec ID : S_HDMV/PGS
Codec ID/Info : Picture based subtitle format used on BDs/HD-DVDs
Duration : 1 h 38 min
Bit rate : 75.8 kb/s
Count of elements : 3660
Stream size : 53.3 MiB (0%)
Language : English
Default : No
Forced : No





Велика подяка пану Sherlock249 за українізований BD постер
За запис з 2+2 дякую пану Bohdan237 та пану Arsenfpu за синхронізацію
Джерело: &
Особиста оцінка: 0 - не дивився
ЗАЛИШАЙТЕСЬ ЯКОМОГА ДОВШЕ НА РОЗДАЧІ!

СКАЧАВ САМ - ДАЙ СКАЧАТИ ІНШИМ



Золотий реліз (завантажене не впливає на рейтинг)
 Трекер:    Зареєстрований   

Завантажити / скачати фільм українською



відео для новачків



 Зареєстрований:   2018-12-13 20:41
 Розмір:   25.67 GB 
 Оцінка фільму:   8.2/10 (Голосів: 18)
   
Інші релізи
   Некерований / Unstoppable (2010) AVC 2xUkr/Eng | Sub Ukr/Eng Arsenfpu  8 / 0   2.47 GB   2017-12-19 16:50 
   Некерований / Unstoppable (2010) AVC Ukr/Eng | Sub Ukr/Eng Yarik M  2 / 0   2.83 GB   2014-12-02 12:29 
   Некерований / Unstoppable (2010) Ukr/Eng The_Marlboro  3 / 0   2.14 GB   2011-01-30 21:41 
   Некерований / Unstoppable (2010) 1080p Ukr/Eng | Sub Ukr/Eng SuperContik  1 / 0   12.3 GB   2011-01-24 22:36 
   Некерований / Unstoppable (2010) 720p Ukr/Eng SuperContik  1 / 0   6.26 GB   2011-01-23 17:47 
   Некерований / Unstoppable (2010) antik_2008  3 / 0   1.46 GB   2010-12-16 05:35 
kryk-v.ya. 
VIP


З нами з: 14.02.14
Востаннє: 25.05.19
Повідомлень: 1218

2017-02-03 13:18  
Дякую.
staf777 
Відео Гуртом - підтримка та поширення
Відео Гуртом - підтримка та поширення


З нами з: 16.11.16
Востаннє: 25.05.19
Повідомлень: 2382

2018-12-13 20:41  
Додав доріжку від та додав укр форсовані саби 
igor911 
Модератор відео


З нами з: 18.01.08
Востаннє: 25.05.19
Повідомлень: 12540

2018-12-13 21:09  
До речі, це єдиний поки реліз на трекері зі звуком з блурея (448 кб/с), в решті релізів - виправив помилково вказаний звук з блурея, насправді там скрізь з ДВД (384 кб/с).
Skiff_1956 
Свій


З нами з: 14.09.14
Востаннє: 25.05.19
Повідомлень: 68

2018-12-14 11:24  
Є ще один дубляж від 1+1
igor911 
Модератор відео


З нами з: 18.01.08
Востаннє: 25.05.19
Повідомлень: 12540

2018-12-14 11:32  
Skiff_1956 написано:
Є ще один дубляж від 1+1

є запис?

falcon_33 
Новенький


З нами з: 29.11.16
Востаннє: 24.05.19
Повідомлень: 1

2018-12-14 13:36  
Гарний фільм. Рекомендую.
Skiff_1956 
Свій


З нами з: 14.09.14
Востаннє: 25.05.19
Повідомлень: 68

2018-12-14 15:00  
Звичайно.
https://toloka.to/t85937

igor911 
Модератор відео


З нами з: 18.01.08
Востаннє: 25.05.19
Повідомлень: 12540

2018-12-14 15:20  
Skiff_1956 написано:
Звичайно.

тю, так тут він і є.

kryk-v.ya. 
VIP


З нами з: 14.02.14
Востаннє: 25.05.19
Повідомлень: 1218

2018-12-14 15:35  
такий суперовий фільм і в мкв...зробіть будь-ласка в BDMV.
igor911 
Модератор відео


З нами з: 18.01.08
Востаннє: 25.05.19
Повідомлень: 12540

2018-12-14 15:37  
kryk-v.ya. написано:
BDMV.

від типу контейнера якість не зміниться.

kryk-v.ya. 
VIP


З нами з: 14.02.14
Востаннє: 25.05.19
Повідомлень: 1218

2018-12-14 15:47  
igor911
так, але мені так краще дивитись...мій блюрей плеєр правильно відтворює інфу...тобто який у фільмі відеокодек, аудіокодек, бітрейд, мову аудіо і постер до даного фільму на пів екрану...дуже зручно...ну і записати на блюрей диск краще.
друже
staf777 написано:
staf777
помилочка закралась...
Цитата:
розмір кадру: 1920x800
а в інфо 1080р.
igor911 
Модератор відео


З нами з: 18.01.08
Востаннє: 25.05.19
Повідомлень: 12540

2018-12-14 15:49  
kryk-v.ya. написано:
помилочка закралась...

виправив

woled 
Частий відвідувач


З нами з: 01.06.17
Востаннє: 19.05.19
Повідомлень: 26

2018-12-17 23:04  
Чудовий фільм, довго його колись шукав ще на DVD...
Ваш часовий пояс: GMT + 2 Години

Нова тема   Відповісти