Вовчиця - шлях до влади / Wild Yellowstone She Wolf (2013) 720p

Нові коментарі

Нова тема   Відповісти
Автор Повідомлення
Anonymous 







2017-01-31 21:24  
Вовчиця - шлях до влади / Wild Yellowstone She Wolf (2013) 720p

Вовчиця - шлях до влади / Wild Yellowstone She Wolf (2013) 720p


Жанр: документальний
Країна: США

Кінокомпанія: National Geographic Television

Сюжет:
У самому серці Йеллоустоунського національного парку по ущелинах блукає легендарна вовчиця. У цих місцях вовк є вищим хижаком і на чолі більшості зграй стоїть пара ватажків - альфа-самець і альфа-самка. Але в одній із зграй все буде інакше - її очолить самка небаченої сили та кмітливості і ця вовча зграя стане однією з найуспішніших в Йеллоустоуні.


Тривалість: 00:44:00
Якість:
Відео:
кодек:
розмір кадру: 1280 х 720
бітрейт: 4800 кб/с

Аудіо # 1:
мова: українська
переклад: одноголосий закадровий
кодек: 2.0
бітрейт: 192 кб/с

Аудіо # 2:
мова: англійська
переклад: оригінал
кодек: MP2
бітрейт: 192 кб/с
Info
General
Unique ID : 172193188607343889508219283962364766224 (0x818B33AA33F1BEB48639EA5A2CC12810)
Complete name : D:\Wild Yellowstone She Wolf 720p [ukr, eng].
Format :
Format version : Version 4 / Version 2
File size : 1.59 GiB
Duration : 44mn 0s
Overall bit rate : 5 182 Kbps
Movie name : For Hurtom by Patriot_Ukr
Encoded date : UTC 2017-01-30 20:58:02
Writing application : mkvmerge v9.3.1 ('Mask Machine') 64bit
Writing library : libebml v1.3.4 + libmatroska v1.4.5
DURATION : 00:44:00.320000000
NUMBER_OF_FRAMES : 82510
NUMBER_OF_BYTES : 63367680
_STATISTICS_WRITING_APP : mkvmerge v9.3.1 ('Mask Machine') 64bit
_STATISTICS_WRITING_DATE_UTC : 2017-01-30 20:58:02
_STATISTICS_TAGS : BPS DURATION NUMBER_OF_FRAMES NUMBER_OF_BYTES

Video
ID : 1
Format : AVC
Format/Info : Advanced Video Codec
Format profile : [email protected]
Format settings, CABAC : Yes
Format settings, ReFrames : 7 frames
Codec ID : V_MPEG4/ISO/AVC
Duration : 44mn 0s
Bit rate : 4 800 Kbps
Width : 1 280 pixels
Height : 720 pixels
Display aspect ratio : 16:9
Frame rate mode : Constant
Frame rate : 25.000 fps
Color space : YUV
Chroma subsampling : 4:2:0
Bit depth : 8 bits
Scan type : Progressive
Bits/(Pixel*Frame) : 0.208
Stream size : 1.44 GiB (91%)
Writing library : core 146 r2538 121396c
Encoding settings : cabac=1 / ref=7 / deblock=1:0:0 / analyse=0x3:0x111 / me=umh / subme=9 / psy=1 / psy_rd=1.05:0.15 / mixed_ref=1 / me_range=32 / chroma_me=1 / trellis=2 / 8x8dct=1 / cqm=0 / deadzone=21,11 / fast_pskip=1 / chroma_qp_offset=-3 / threads=6 / lookahead_threads=1 / sliced_threads=0 / nr=0 / decimate=1 / interlaced=0 / bluray_compat=0 / constrained_intra=0 / bframes=8 / b_pyramid=2 / b_adapt=2 / b_bias=0 / direct=3 / weightb=1 / open_gop=0 / weightp=2 / keyint=250 / keyint_min=25 / scenecut=40 / intra_refresh=0 / rc_lookahead=60 / rc=2pass / mbtree=1 / bitrate=4800 / ratetol=1.0 / qcomp=0.60 / qpmin=0 / qpmax=69 / qpstep=4 / cplxblur=20.0 / qblur=0.5 / ip_ratio=1.40 / aq=2:1.00
Default : Yes
Forced : No

Audio #1
ID : 2
Format : AC-3
Format/Info : Audio Coding 3
Mode extension : CM (complete main)
Format settings, Endianness : Big
Codec ID : A_AC3
Duration : 44mn 0s
Bit rate mode : Constant
Bit rate : 192 Kbps
Channel(s) : 2 channels
Channel positions : Front: L R
Sampling rate : 48.0 KHz
Compression mode : Lossy
Stream size : 60.4 MiB (4%)
Default : Yes
Forced : No

Audio #2
ID : 3
Format : MPEG Audio
Format version : Version 1
Format profile : Layer 2
Codec ID : A_MPEG/L2
Codec ID/Hint : MP2
Duration : 44mn 0s
Bit rate mode : Constant
Bit rate : 192 Kbps
Channel(s) : 2 channels
Sampling rate : 48.0 KHz
Compression mode : Lossy
Stream size : 60.4 MiB (4%)
Title : Original
Language : English
Default : No
Forced : No
Скріншоти





Джерело: &
Особиста оцінка: 0 - не дивився
Висловлюю подяку пану nyctalus за роботу зі звуком постер


 Трекер:    Зареєстрований   

Завантажити / скачати фільм українською



відео для новачків



 Зареєстрований:   2017-01-31 21:30
 Розмір:   1.59 GB 
 Оцінка фільму:   4/10 (Голосів: 15)
   
kinaxem 
Свій


З нами з: 21.12.16
Востаннє: 18.08.17
Повідомлень: 84

2017-01-31 21:55  
А .avi хтось може зробити?
Anonymous 







2017-01-31 22:16  
kinaxem
Емм... Пошук ніхто не скасовував. Ось - https://toloka.to/t70119

kinaxem 
Свій


З нами з: 21.12.16
Востаннє: 18.08.17
Повідомлень: 84

2017-01-31 22:45  
Anonymous написано:
Емм... Пошук ніхто не скасовував. Ось - https://toloka.to/t70119

Дякую! Щось я провтикав.

Ваш часовий пояс: GMT + 2 Години

Нова тема   Відповісти