Час Пригод (Сезон 8, серія 1) / Adventure Time (Season 8, episode 1) (2017) 1080p Eng | sub Ukr/Eng

Нові коментарі

Нова тема   Відповісти
Останній раз роздавалося lvlx (2017-08-17)
Автор Повідомлення
Повітряний Змій 
Частий відвідувач


З нами з: 06.01.16
Востаннє: 17.08.17
Повідомлень: 25

2017-01-31 21:18  
Час Пригод (Сезон 8, серія 1) / Adventure Time (Season 8, episode 1) (2017) 1080p Eng | sub Ukr/Eng

Час Пригод (Сезон 8, серія 1) / Adventure Time (Season 8, episode 1) (2017) 1080p Eng | sub Ukr/Eng


Жанр: анімація, комедія, фантастика, пригодницький
Країна: США



Кінокомпанія: Cartoon Network Studios, Frederator Incorporated
Режисер: Пендлтон Ворд
Актори: Джеремі Шеда, Джон ДіМаджіо, Том Кенні, Олівія Олсон та ін.

Сюжет: Серіал розповідає про незвичайні та веселі пригоди двох найкращих друзів: парубка Фіна та його собаки Джейка. Дія серіалу відбувається в чарівній країні Ууу. Фін обожнює подорожувати й рятувати принцес із лап жахливих монстрів і лиходіїв, що населяють Землю Ууу, Джейк - найкращий друг Фіна. Це чарівна собака зі здатністю розтягувати своє тіло до практично будь-яких розмірів і форм. Пес виконує роль такого собі приятеля-наставника Фіна, а його чарівні здібності допомагають хлопцеві в його боротьбі зі злом.

Тривалість: 1 серія: ~ 11 хв. (цілком серій: 1)
Перелік серій
01. Два мечі/Two Swords
Якість:
Відео:
кодек:
розмір кадру:
1920x1080
бітрейт: 5100 кб/с

Аудіо:
мова: англійська
переклад: оригінал
кодек: 2.0
бітрейт: 154 кб/с

Субтитри # 1:
мова: українська
тип: програмні (м'які)
формат: *.ass

Субтитри # 2:
мова: англійська
тип: програмні (м'які)
формат: *.srt
Скріншоти


Info

General
Unique ID : 251966830556011639659820496920556707469 (0xBD8F0BE09BFEA389B5D93B5E03E19E8D)
Format :
Format version : Version 4 / Version 2
File size : 439 MiB
Duration : 11mn 16s
Overall bit rate : 5 440 Kbps
Encoded date : UTC 2017-01-24 14:16:02
Writing application : mkvmerge v9.8.0 ('Kuglblids') 64bit
Writing library : libebml v1.3.4 + libmatroska v1.4.5
Cover : Yes
Attachments : small_cover.jpg / cover.jpg / cover_land.jpg / small_cover_land.jpg

Video
ID : 2
Format : AVC
Format/Info : Advanced Video Codec
Format profile : High@L4
Format settings, CABAC : Yes
Format settings, ReFrames : 4 frames
Codec ID : V_MPEG4/ISO/AVC
Duration : 11mn 16s
Bit rate : 5 284 Kbps
Width : 1 920 pixels
Height : 1 080 pixels
Display aspect ratio : 16:9
Frame rate mode : Constant
Frame rate : 23.976 (24000/1001) fps
Color space : YUV
Chroma subsampling : 4:2:0
Bit depth : 8 bits
Scan type : Progressive
Bits/(Pixel*Frame) : 0.106
Stream size : 426 MiB (97%)
Language : English
Default : Yes
Forced : No
Color range : Limited
Color primaries : BT.709
Transfer characteristics : BT.709
Matrix coefficients : BT.709

Audio
ID : 1
Format :
Format/Info : Advanced Audio Codec
Format profile : LC
Codec ID : A_AAC
Duration : 11mn 16s
Bit rate : 153 Kbps
Channel(s) : 2 channels
Channel positions : Front: L R
Sampling rate : 48.0 KHz
Frame rate : 46.875 fps (1024 spf)
Compression mode : Lossy
Stream size : 12.3 MiB (3%)
Language : English
Default : Yes
Forced : No

Text
ID : 3
Format : UTF-8
Codec ID : S_TEXT/UTF8
Codec ID/Info : UTF-8 Plain Text
Duration : 11mn 14s
Bit rate : 130 bps
Count of elements : 295
Stream size : 10.7 KiB (0%)
Language : English
Default : No
Forced : No
Джерело: власний переклад
Особиста оцінка: 10 - без зайвих вагань рекомендую всім!


 Трекер:    Зареєстрований   

Завантажити / скачати мультфільм українською



відео для новачків



 Зареєстрований:   2017-01-31 21:18
 Розмір:   439 MB 
 Оцінка мультсеріалу:   10/10 (Голосів: 4)
   
leicheman 
Відео Гуртом - підтримка та поширення
Відео Гуртом - підтримка та поширення


З нами з: 03.07.14
Востаннє: 17.08.17
Повідомлень: 1042

2017-01-31 21:36  
Сезон просто бомбезний
Особливо арка про острови

11FrYkT 
Модератор відео


З нами з: 20.02.11
Востаннє: 17.08.17
Повідомлень: 3798

2017-01-31 21:51  
Повітряний Змій , вкажіть джерело сабів
Повітряний Змій 
Частий відвідувач


З нами з: 06.01.16
Востаннє: 17.08.17
Повідомлень: 25

2017-01-31 21:58  
[b]11FrYkT[/b] а яке джерело вказувати, якщо саби мої? Просто вписати себе?
Patriot_ukr 
VIP


З нами з: 06.04.15
Востаннє: 17.08.17
Повідомлень: 1757

2017-01-31 22:15  
Повітряний Змій
"Власний переклад"

Повітряний Змій 
Частий відвідувач


З нами з: 06.01.16
Востаннє: 17.08.17
Повідомлень: 25

2017-03-28 21:41  
Далі, напевне, уже не буде. Перепрошую. Допрацюю сьомий сезон і все, з АТ закінчу. Якщо хтось хотів сам узятися за восьмий сезон, але не зробив цього, бо вже "забито" за мною, може робити це з чистою совістю.
Gedet 
Відео Гуртом - субтитрування
Відео Гуртом - субтитрування


З нами з: 17.11.11
Востаннє: 17.05.17
Повідомлень: 1798

2017-04-19 01:22  
Та кого ви перепрошуєте. Ви і так це робите виключно для себе.
Ваш часовий пояс: GMT + 2 Години

Нова тема   Відповісти