Не займайте Зохана [Розширена версія] / You Don't Mess with the Zohan [Unrated] (2008) 1080p 2xUkr/Eng | Sub Eng

Нові коментарі

Нова тема   Відповісти
Автор Повідомлення
staf777 
Відео Гуртом - підтримка та поширення
Відео Гуртом - підтримка та поширення


З нами з: 16.11.16
Востаннє: 19.10.19
Повідомлень: 2990

2017-01-31 17:05  
Не займайте Зохана / Не жартуйте з Зоханом / Краще не чіпати Зохана [Розширена версія] / You Don't Mess with the Zohan [Unrated] (2008) 1080p 2xUkr/Eng | Sub Eng

Не займайте Зохана [Розширена версія] / You Don't Mess with the Zohan [Unrated] (2008) 1080p 2xUkr/Eng | Sub Eng


Жанр: бойовик, комедія, музичний, романтичний
Країна: США



Кінокомпанія: Columbia Pictures
Режисер: Денніс Дуган
Актори: Адам Сендлер, Джон Туртурро, Емануель Шрікі, Нік Свардсон, Лейні Кезан, Роб Шнайдер

Сюжет:
Зохану, агентові ізраїльської спецслужби Моссад хочеться мирного і спокійного життя. Відчуваючи, що на землі обітованою його бажання не здійсниться, він наважується на крайні заходи. Імітуючи свою смерть, Зохан зникає з Ізраїлю і, трохи змінивши зовнішність, з?являється в Нью-Йорку. Там він освоює мирну професію перукаря, знайомиться з дівчатами, словом, майже здійснює свою мрію. Але ледве тільки герой починає відчувати смак свого нового життя, як минуле наздоганяє його і Зохану доводиться згадувати своє старе ремесло.


Тривалість: 01:56:53 Розширена версія, довше театральної на 4 хвилини. На місця без перекладу присутні форсовані субтитри.

Якість: 1080p
Відео:
кодек:
розмір кадру: 1920x1040
бітрейт: 14414 кб/с

Аудіо # 1:
мова: українська
переклад: професійний дубльований | Невафільм Україна
кодек: 5.1
бітрейт: 448 кб/с

Аудіо # 2:
мова: українська
переклад: багатоголосий закадровий
кодек: 2.0
бітрейт: 192 кб/с

Аудіо # 3:
мова: англійська
переклад: оригінал
кодек: 5.1
бітрейт: 1509 кб/с

Аудіо # 4:
мова: англійська
переклад: коментарі режисера
кодек: 2.0
бітрейт: 192 кб/с

Аудіо # 5:
мова: англійська
переклад: коментарі Адама Сендлера, Роберта Шмігеля, Роба Шнайдера, Ніка Свардстона
кодек: 2.0
бітрейт: 192 кб/с

Субтитри# 1:
мова: українська (форсовані, лише на місця без перекладу)
тип: програмні (м'які)
формат: *.srt

Субтитри # 2-6:
мова: англійська (форсовані, повні, SDH, на коментарі режисера, на коментарі акторів)
тип: програмні (м'які)
формат: *.srt
Info
General
Unique ID : 234672841488761239440035247521645244797 (0xB08C5862AE8916CBB60411DBCB20B17D)
Complete name : P:\HDClub\You Don't Mess with the Zohan (2008) [2xUkr,Eng sub.Ukr,Eng] 1080p [Unrated] [Hurtom].
Format :
Format version : Version 4 / Version 2
File size : 13.8 GiB
Duration : 1h 56mn
Overall bit rate : 17.0 Mbps
Movie name : You Don't Mess with the Zohan (2008) [2xUkr,Eng sub.Ukr,Eng] 1080p [Unrated] [Hurtom]
Encoded date : UTC 2017-02-01 17:40:09
Writing application : v9.8.0 ('Kuglblids') 64bit
Writing library : libebml v1.3.4 + v1.4.5
Attachements : cover.jpg / logfile.log
DURATION : 01:50:39.701000000
NUMBER_OF_FRAMES : 2090
NUMBER_OF_BYTES : 83856
_STATISTICS_WRITING_APP : v9.8.0 ('Kuglblids') 64bit
_STATISTICS_WRITING_DATE_UTC : 2017-02-01 17:40:09
_STATISTICS_TAGS : BPS DURATION NUMBER_OF_FRAMES NUMBER_OF_BYTES

Video
ID : 1
Format : AVC
Format/Info : Advanced Video Codec
Format profile : [email protected]
Format settings, CABAC : Yes
Format settings, ReFrames : 4 frames
Codec ID : V_MPEG4/ISO/AVC
Duration : 1h 56mn
Bit rate : 14.1 Mbps
Width : 1 920 pixels
Height : 1 040 pixels
Display aspect ratio : 1.85:1
Frame rate mode : Constant
Frame rate : 23.976 fps
Color space : YUV
Chroma subsampling : 4:2:0
Bit depth : 8 bits
Scan type : Progressive
Bits/(Pixel*Frame) : 0.294
Stream size : 11.5 GiB (83%)
Title : You Don't Mess with the Zohan [Unrated Edition] (2008) - Release for HDCLUB
Writing library : core 148 r2744kMod b97ae06
Encoding settings : cabac=1 / ref=4 / deblock=1:-3:-3 / analyse=0x3:0x133 / me=umh / subme=11 / psy=1 / fade_compensate=0.00 / psy_rd=1.00:0.10 / mixed_ref=1 / me_range=32 / chroma_me=1 / trellis=2 / 8x8dct=1 / cqm=0 / deadzone=21,11 / fast_pskip=0 / chroma_qp_offset=-3 / threads=12 / lookahead_threads=3 / sliced_threads=0 / nr=0 / decimate=1 / interlaced=0 / bluray_compat=0 / constrained_intra=0 / bframes=11 / b_pyramid=2 / b_adapt=2 / b_bias=0 / direct=3 / weightb=1 / open_gop=0 / weightp=2 / keyint=240 / keyint_min=23 / scenecut=40 / intra_refresh=0 / rc_lookahead=80 / rc=crf / mbtree=0 / crf=19.0000 / qcomp=0.65 / qpmin=0 / qpmax=69 / qpstep=4 / vbv_maxrate=62500 / vbv_bufsize=78125 / crf_max=0.0 / nal_hrd=none / filler=0 / ip_ratio=1.30 / pb_ratio=1.20 / aq=3:0.85
Language : English
Default : Yes
Forced : No

Audio #1
ID : 2
Format : AC-3
Format/Info : Audio Coding 3
Mode extension : CM (complete main)
Format settings, Endianness : Big
Codec ID : A_AC3
Duration : 1h 56mn
Bit rate mode : Constant
Bit rate : 448 Kbps
Channel(s) : 6 channels
Channel positions : Front: L C R, Side: L R, LFE
Sampling rate : 48.0 KHz
Bit depth : 16 bits
Compression mode : Lossy
Stream size : 375 MiB (3%)
Title : Дубляж, Blu-ray CEE
Language : Ukrainian
Default : No
Forced : Yes

Audio #2
ID : 3
Format : AC-3
Format/Info : Audio Coding 3
Mode extension : CM (complete main)
Format settings, Endianness : Big
Codec ID : A_AC3
Duration : 1h 56mn
Bit rate mode : Constant
Bit rate : 192 Kbps
Channel(s) : 2 channels
Channel positions : Front: L R
Sampling rate : 48.0 KHz
Bit depth : 16 bits
Compression mode : Lossy
Stream size : 161 MiB (1%)
Title : UA-MVO ICTV
Language : Ukrainian
Default : No
Forced : Yes

Audio #3
ID : 4
Format :
Format/Info : Digital Theater Systems
Mode : 16
Format settings, Endianness : Big
Codec ID : A_DTS
Duration : 1h 56mn
Bit rate mode : Constant
Bit rate : 1 509 Kbps
Channel(s) : 6 channels
Channel positions : Front: L C R, Side: L R, LFE
Sampling rate : 48.0 KHz
Bit depth : 16 bits
Compression mode : Lossy
Stream size : 1.23 GiB (9%)
Title : English
Language : English
Default : No
Forced : No

Audio #4
ID : 5
Format : AC-3
Format/Info : Audio Coding 3
Format profile : Dolby Digital
Mode extension : CM (complete main)
Format settings, Endianness : Big
Codec ID : A_AC3
Duration : 1h 56mn
Bit rate mode : Constant
Bit rate : 192 Kbps
Channel(s) : 2 channels
Channel positions : Front: L R
Sampling rate : 48.0 KHz
Bit depth : 16 bits
Compression mode : Lossy
Stream size : 161 MiB (1%)
Title : Commentary with Director Dennis Dugan
Language : English
Default : No
Forced : No

Audio #5
ID : 6
Format : AC-3
Format/Info : Audio Coding 3
Format profile : Dolby Digital
Mode extension : CM (complete main)
Format settings, Endianness : Big
Codec ID : A_AC3
Duration : 1h 56mn
Bit rate mode : Constant
Bit rate : 192 Kbps
Channel(s) : 2 channels
Channel positions : Front: L R
Sampling rate : 48.0 KHz
Bit depth : 16 bits
Compression mode : Lossy
Stream size : 161 MiB (1%)
Title : Commentary with Adam Sandler, Robert Smigel, Rob Schneider & Nick Swardson
Language : English
Default : No
Forced : No

Text #1
ID : 7
Format : UTF-8
Codec ID : S_TEXT/UTF8
Codec ID/Info : UTF-8 Plain Text
Title : Ukrainian (Forced)
Language : Ukrainian
Default : Yes
Forced : Yes

Text #2
ID : 8
Format : UTF-8
Codec ID : S_TEXT/UTF8
Codec ID/Info : UTF-8 Plain Text
Title : English (Forced)
Language : English
Default : No
Forced : No

Text #3
ID : 9
Format : UTF-8
Codec ID : S_TEXT/UTF8
Codec ID/Info : UTF-8 Plain Text
Title : English
Language : English
Default : No
Forced : No

Text #4
ID : 10
Format : UTF-8
Codec ID : S_TEXT/UTF8
Codec ID/Info : UTF-8 Plain Text
Title : English (SDH)
Language : English
Default : No
Forced : No

Text #5
ID : 11
Format : UTF-8
Codec ID : S_TEXT/UTF8
Codec ID/Info : UTF-8 Plain Text
Title : Commentary with Director Dennis Dugan
Language : English
Default : No
Forced : No

Text #6
ID : 12
Format : UTF-8
Codec ID : S_TEXT/UTF8
Codec ID/Info : UTF-8 Plain Text
Title : Commentary with Adam Sandler, Robert Smigel, Rob Schneider & Nick Swardson
Language : English
Default : No
Forced : No

Menu
00:00:00.000 : :Chapter 01
00:07:48.092 : :Chapter 02
00:13:38.567 : :Chapter 03
00:19:05.102 : :Chapter 04
00:28:12.982 : :Chapter 05
00:34:19.432 : :Chapter 06
00:41:51.133 : :Chapter 07
00:47:51.868 : :Chapter 08
00:54:41.861 : :Chapter 09
01:02:44.343 : :Chapter 10
01:10:46.283 : :Chapter 11
01:18:20.362 : :Chapter 12
01:26:10.498 : :Chapter 13
01:31:57.803 : :Chapter 14
01:39:24.583 : :Chapter 15
01:48:41.514 : :Chapter 16
Скріншоти



Джерело: &
Подяка fl_fl за постер.
Особиста оцінка: 0 - не дивився


 Трекер:    Зареєстрований   

Завантажити / скачати фільм українською



відео для новачків



 Зареєстрований:   2017-02-01 21:46
 Розмір:   13.84 GB 
 Оцінка фільму:   9.1/10 (Голосів: 14)
   
Vladuk88 
Свій


З нами з: 14.10.09
Востаннє: 16.10.19
Повідомлень: 69

2017-09-22 19:56  
Чи є у фільмі присутня озвучка з акцентом?
igor911 
Модератор відео


З нами з: 18.01.08
Востаннє: 19.10.19
Повідомлень: 13542

2017-09-22 20:09  
Vladuk88, озвучки ті самі, що тут https://toloka.to/t23759 і тут https://toloka.to/t57159 там є коментарі. Дубляж був у кінотеатрах.
Ваш часовий пояс: GMT + 2 Години

Нова тема   Відповісти