Щасливого Різдва / Joyeux Noël (2005) 720p Ukr/Multy | Sub Ukr/Eng

Нові коментарі

Нова тема   Відповісти
Автор Повідомлення
staf777 
Відео Гуртом - підтримка та поширення
Відео Гуртом - підтримка та поширення


З нами з: 16.11.16
Востаннє: 16.08.17
Повідомлень: 522

2017-01-31 16:21  
Щасливого Різдва / Joyeux Noël (2005) 720p Ukr/Multy | sub Ukr/Eng

Альтернативні постери:


Слогани:
«France 1914. A moment of humanity that made history.»
«Франція 1914. Момент людяності, який створив історію.»


Жанр: драма, історичний, музичний, романтичний, воєнний
Країна: Німеччина (), Франція (), Велика Британія (), Норвегія (), Бельгія (), Румунія ()



Кіностудія / кінокомпанія: Nord-Ouest Productions, Senator Film Produktion, Bureau, The
Режисер: Крістіан Каріон (Christian Carion)
Актори: Даніель Брюль (Daniel Brühl), Дайан Крюгер (Diane Kruger), Бенно Фюрманн (Benno Fürmann), Гійом Кане (Guillaume Canet), Гарі Льюіс (Gary Lewis), Дені Бун (Dany Boon), Люка Бельво (Lucas Belvaux)
Усі актори та їх фото:
Даніель Брюль (Daniel Brühl), Дайан Крюгер (Diane Kruger), Бенно Фюрманн (Benno Fürmann), Гійом Кане (Guillaume Canet), Гарі Льюіс (Gary Lewis), Дені Бун (Dany Boon), Люка Бельво (Lucas Belvaux), Наталі Дессена (Natalie Dessay), Роландо Вільясон (Rolando Villazón), Алекс Фернс (Alex Ferns), Стівен Робертсон (Steven Robertson), Франк Віттер (Frank Witter), Бернар Ле Кок (Bernard Le Coq), Іен Річардсон (Ian Richardson), Томас Шмаузер (Thomas Schmauser), Йоахім Біссмайер (Joachim Bissmeier), Робін Лейн (Robin Laing), Мішель Серро (Michel Serrault), Сюзанн Флон (Suzanne Flon), Келам Бітон (Calum Beaton), Отто Бекману (Otto Beckmann), Філіп Ботье (Philippe Beautier), Стеффен Бєліґ (Steffen Bielig), Ніколас Біггам (Nicholas Biggam), Філіп Браммер (Philipp Brammer), Девід Брюс (David Bruce), Крістіан Каріон (Christian Carion), Френсі Корбет (France Corbet), Майкі Дедадж (Mickey Dedaj), Стівен Даффі (Steven Duffy), Том Дункан (Tom Duncan), Рой Ентвістл (Roy Entwistle), Маркус Фрідман (Markus Friedmann), Крістофер Фулфорд (Christopher Fulford), Міхаель Грімм (Michael Grimm), Янніс Хенсель (Jannis Hensel), Матіас Херрманн (Mathias Herrmann), Жан Хаттер (Jan Hutter), Джо Джонсон (Jo Johnson), Джо Джонсон (Jo Johnson), Фрайзер Джонстон (Fraser Johnston), Гарі Ламонт (Gary Lamont), Гріогейр Лаврі (Griogair Lawrie), Джеррард Лінч (Gerrard Lynch), Іван МакДональд (Ivan MacDonald), Джордан МакКуррач (Jordan McCurrach), Ніл МакНалті (Neil McNulty), Тоні Метьюз (Tony Matthews), Флоріан Мескам (Florian Mescam), Емун Мохаммаді (Emun Mohammadi), Девід Маллен (David Mullen), Йен Пашер (Ian Pascher), Йен Петрі (Ian Petrie), Енді Рамсей (Andy Ramsay), Марк Роберт (Marc Robert), Петер Рюрінг (Peter Rühring), Аллан Сейверс (Allan Sawers), Фрідемейн Зейл (Friedemann Thiele), Йоханнес Річард Воулкел (Johannes Richard Voelkel), Гілберт вон Золерн (Gilbert von Sohlern), Марк Вуд (Mark Wood), Олександр Вюст (Alexander Wüst), Майкл Пашер (Michael Pascher), Влад Коада (Vlad Coada), Христоф Россігнон (Christophe Rossignon)





Сюжет:
Напередодні Різдва 1914 року четверо людей пережили незабутнє. Шотландський священик, французький лейтенант, німецький тенор і його кохана опинилися в самому серці спонтанного братерства, що виникло між траншеями німців, англійців і французів.

Рушниці були залишені на дні окопів, а самі солдати й офіцери вийшли назустріч один одному, щоб обмінятися сигаретами, розділити шоколад і побажати один одному: "Щасливого Різдва!»


Бюджет: 22 000 000 доларів
Збори в США: 1 054 361 долар
Збори у світі: 17 643 374 долари
Чи знаєте ви, що...
1) Спочатку, фільму планувалося поставити рейтинг R. Але після засудження цього факту відомим кінокритиком Роджером Ебертом, MPAA офіційно змінила рейтинг на PG-13.
2) Цей фільм присвячений всім солдатам, які билися на різних фронтах під час Різдва 1914 року.
Назва фільму у інших країнах
Joyeux Noel
Міжнародна (Англійська назва) / Великобританія / США


Feliz Natal
Бразилія (відеоназва) / Португалія


Merry Christmas
Великобританія (неформальна буквальна назва) / США (неформальна буквальна назва)


Ateskes
Туреччина


En dag uden krig
Данія


En dag utan krig
Фінляндія (Шведська назва)


En dag uten krig
Норвегія


Fegyverszünet karácsonyra
Угорщина


Feliz Navidad (Joyeux Noël)
Іспанія


Fiendeland
Швеція


Happy Christmas
Міжнародна (неформальна буквальна назва) (Англійська назва)


Joyeux Noël - Una verità dimenticata dalla storia
Італія


Kala Hristougenna
Греція


Noche de paz
Аргентина


Päivä ilman sotaa
Фінляндія


Sretan Bozic
Хорватія


Wesolych Swiat
Польща


Счастливого Рождества
Росія
Нагороди і номінації
Оскар, 2006 рік
Номінації (1):
1) Кращий фільм іноземною мовою - «Франція»



Золотий глобус, 2006 рік
Номінації (1):
1) Кращий фільм іноземною мовою - «Франція»



Британська академія, 2006 рік
Номінації (1):
1) Кращий фільм на іноземній мові



Сезар, 2006 рік
Номінації (6):
1) Кращий фільм
2) Кращий актор другого плану (Дені Бун)
3) Кращий сценарій
4) Кращі костюми
5) Кращий саундтрек
6) Кращі декорації



Європейська кіноакадемія, 2006 рік
Номінації (1):
1) Приз глядацьких симпатій за кращий фільм
Тривалість: 01:55:59
Якість: 720p
Відео:
кодек: H264
розмір кадру: 1280x544
бітрейт: 5088 кб/с

Аудіо #1:
мова: українська
переклад: двоголосий закадровий
кодек: 5.1
бітрейт: 1510 кб/с
озвучено:

Аудіо #2:
мова: французька+німецька+англійська+латинська
переклад: оригінал
кодек: 5.1
бітрейт: 1509 кб/с

Субтитри #1:
мова: українська
тип: програмні (м'які)
формат: *.srt

Субтитри #2:
мова: англійська
тип: програмні (м'які)
формат: *.srt

Скріншоти:




MI:

General
Unique ID : 190829964864561130973714936429015832070 (0x8F9083AD38BC6CD995E043DB05CD9606)
Complete name : P:\HDClub\ Joyeux Noël (2005) [Ukr,Multiple languages sub.Ukr,Eng] 720p [Hurtom].
Format :
Format version : Version 4 / Version 2
File size : 6.57 GiB
Duration : 1 h 55 min
Overall bit rate : 8 110 kb/s
Movie name : Joyeux Noël (2005) [Ukr,Multiple languages sub.Ukr,Eng] 720p [Hurtom]
Encoded date : UTC 2017-01-31 16:45:42
Writing application : mkvmerge v9.8.0 ('Kuglblids') 64bit
Writing library : libebml v1.3.4 + libmatroska v1.4.5
Cover : Yes
Attachments : cover.jpg

Video
ID : 1
Format : AVC
Format/Info : Advanced Video Codec
Format profile : [email protected]
Format settings, CABAC : Yes
Format settings, ReFrames : 12 frames
Codec ID : V_MPEG4/ISO/AVC
Duration : 1 h 55 min
Bit rate : 5 088 kb/s
Width : 1 280 pixels
Height : 544 pixels
Display aspect ratio : 2.35:1
Frame rate mode : Constant
Frame rate : 23.976 (23976/1000) FPS
Color space : YUV
Chroma subsampling : 4:2:0
Bit depth : 8 bits
Scan type : Progressive
Bits/(Pixel*Frame) : 0.305
Stream size : 4.12 GiB (63%)
Writing library : core 148 r2744+55 950084e t_mod_Custom [[email protected] X86_64]
Encoding settings : cabac=1 / ref=12 / deblock=1:-3:-3 / analyse=0x3:0x133 / me=umh / subme=10 / psy=1 / fade_compensate=0.00 / psy_rd=1.00:0.05 / mixed_ref=1 / me_range=32 / chroma_me=1 / trellis=2 / 8x8dct=1 / cqm=0 / deadzone=21,11 / fast_pskip=0 / chroma_qp_offset=-3 / threads=6 / lookahead_threads=1 / sliced_threads=0 / nr=0 / decimate=1 / interlaced=0 / bluray_compat=0 / constrained_intra=0 / fgo=0 / bframes=10 / b_pyramid=2 / b_adapt=2 / b_bias=0 / direct=3 / weightb=1 / open_gop=0 / weightp=2 / keyint=250 / keyint_min=23 / scenecut=40 / intra_refresh=0 / rc_lookahead=60 / rc=crf / mbtree=0 / crf=17.0000 / qcomp=0.65 / qpmin=0:0:0 / qpmax=69:69:69 / qpstep=4 / vbv_maxrate=62500 / vbv_bufsize=78125 / crf_max=0.0 / nal_hrd=none / filler=0 / ip_ratio=1.30 / pb_ratio=1.20 / aq=1:0.80 / aq-sensitivity=10.00 / aq-factor=1.00:1.00:1.00 / aq2=1:0.60 / aq2-sensitivity=15.00 / aq2-factor=1.00:1.00:1.00 / aq3=1:[0.55:0.55]:[0.55:0.55]:[0.55:0.55]:[0.55:0.55] / aq3-sensitivity=10.00 / aq3-factor=[1.00:1.00]:[1.00:1.00]:[1.00:1.00] / aq3-boundary=192:64:24
Language : English
Default : Yes
Forced : No
Color range : Limited
Color primaries : BT.709
Transfer characteristics : BT.709
Matrix coefficients : BT.709

Audio #1
ID : 2
Format :
Format/Info : Digital Theater Systems
Mode : 16
Format settings, Endianness : Big
Codec ID : A_DTS
Duration : 1 h 55 min
Bit rate mode : Constant
Bit rate : 1 510 kb/s
Channel(s) : 6 channels
Channel positions : Front: L C R, Side: L R, LFE
Sampling rate : 48.0 kHz
Frame rate : 93.750 FPS (512 spf)
Bit depth : 24 bits
Compression mode : Lossy
Stream size : 1.22 GiB (19%)
Title : Українська доріжка
Language : Ukrainian
Default : Yes
Forced : Yes

Audio #2
ID : 3
Format :
Format/Info : Digital Theater Systems
Mode : 16
Format settings, Endianness : Big
Codec ID : A_DTS
Duration : 1 h 55 min
Bit rate mode : Constant
Bit rate : 1 509 kb/s
Channel(s) : 6 channels
Channel positions : Front: L C R, Side: L R, LFE
Sampling rate : 48.0 kHz
Frame rate : 93.750 FPS (512 spf)
Bit depth : 24 bits
Compression mode : Lossy
Stream size : 1.22 GiB (19%)
Title : German + French + English
Language : Multiple languages
Default : No
Forced : No

Text #1
ID : 4
Format : UTF-8
Codec ID : S_TEXT/UTF8
Codec ID/Info : UTF-8 Plain Text
Duration : 1 h 45 min
Bit rate : 58 b/s
Count of elements : 869
Stream size : 45.5 KiB (0%)
Language : Ukrainian
Default : No
Forced : Yes

Text #2
ID : 5
Format : UTF-8
Codec ID : S_TEXT/UTF8
Codec ID/Info : UTF-8 Plain Text
Duration : 1 h 55 min
Bit rate : 31 b/s
Count of elements : 809
Stream size : 27.1 KiB (0%)
Language : English
Default : No
Forced : No

Menu
00:00:00.000 : en:00:00:00.000
00:08:08.655 : en:00:08:08.655
00:17:04.440 : en:00:17:04.440
00:27:25.561 : en:00:27:25.561
00:36:07.707 : en:00:36:07.707
00:45:13.502 : en:00:45:13.502
00:55:05.469 : en:00:55:05.469
01:06:01.958 : en:01:06:01.958
01:13:47.256 : en:01:13:47.256
01:23:22.706 : en:01:23:22.706
01:32:43.099 : en:01:32:43.099
01:41:14.277 : en:01:41:14.277
01:48:07.981 : en:01:48:07.981
Трейлери:




Джерело: &
Подяка за запис української доріжки з ТБ пану Technomate , та urij546724
за її синхронізацію

Особиста оцінка: 0 - не дивився


 Трекер:    Зареєстрований   

Завантажити / скачати фільм українською



відео для новачків



 Зареєстрований:   2017-01-31 20:37
 Розмір:   6.57 GB 
 Оцінка фільму:   10/10 (Голосів: 1)
   
Інші релізи
staf777 
Відео Гуртом - підтримка та поширення
Відео Гуртом - підтримка та поширення


З нами з: 16.11.16
Востаннє: 16.08.17
Повідомлень: 522

2017-01-31 20:32  
Оригінальний постер

Щасливого Різдва / Joyeux Noël (2005) 720p Ukr/Multy | Sub Ukr/Eng

Ваш часовий пояс: GMT + 2 Години

Нова тема   Відповісти