Хроніки Крил - Принцеса країни пташиної клітки / ツバサ・クロニクル 鳥カゴの国の姫君 / Tsubasa Chronicle Tori Kago no Kuni no Himegimi (2005) 1080р UKR/JAP | SUB/UKR

Нові коментарі

Нова тема   Відповісти
Останній раз роздавалося Elige (2017-08-24)
Автор Повідомлення
Ліхтарник 
VIP


З нами з: 16.09.14
Востаннє: 24.08.17
Повідомлень: 629

2017-01-30 23:10  
Хроніки Крил - Принцеса країни пташиної клітки / ツバサ・クロニクル 鳥カゴの国の姫君 / Tsubasa Chronicle Tori Kago no Kuni no Himegimi (2005) 1080р UKR/JAP | SUB/UKR

Хроніки Крил - Принцеса країни пташиної клітки / ツバサ・クロニクル 鳥カゴの国の姫君 / Tsubasa Chronicle Tori Kago no Kuni no Himegimi (2005) 1080р UKR/JAP | SUB/UKR


Повнорозмірний постер

Жанр: пригоди, фантастика, шьонен, драма
Країна: Японія



Кінокомпанія: Production I.G
Режисер: Кавасакі Іцуроу
Ролі озвучують: Намікава Дейсукі, Макіно Юї, Іріно Мію, Інада Тецу та інші.

Сюжет:
Пригоди Шаорана і Сакури продовжуються!
Цього разу Мокона приводить їх в Країну Пташиної Клітки. Раніше це був мирний край, де люди і птахи співіснували. Відколи нинішній король за допомогою невідомої сили зміг захопити владу над королівством, все докорінно змінилося. Тепер люди налякані і страждають. Принцеса Томойо, законна спадкоємиця, намагалась йому перешкодити, та натомість залишилася без своїх птаха і Голосу. Чи зможуть Шаоран і його друзі допомогти принцесі? І що за таємничу силу здобув правлячий король?


Тривалість: 00:35:00
Якість:
Відео:
кодек: WMV 3
розмір кадру: 1 920 х 1 080
бітрейт: 4 779 Кбіт/сек

Аудіо # 1:
мова: українська
переклад: багатоголосий закадровий
кодек: 5.1
бітрейт: 448 Кбіт/сек

Аудіо # 2:
мова: японська
переклад: оригінал
кодек: 5.1
бітрейт: 448 Кбіт/сек

Субтитри:
мова: українська (повні)
тип: програмні (м'які)
формат: UTF-8
Info
General
Unique ID : 173186793323345134711702091504349695050 (0x824A9028DAA33B6780FA4DD43C114C4A)
Complete name : H:\Tsubasa Chronicle [Movie]\[Робота Голосом] Хроніки Крил - Принцеса країни пташиної клітки (Tsubasa Chronicle Tori Kago no Kuni no Himegimi) [ 1080p WMV9 5.1] [UKR, JAP+SUB].
Format :
Format version : Version 4 / Version 2
File size : 1.37 GiB
Duration : 34 min 35 s
Overall bit rate : 5 678 kb/s
Movie name : 劇場版 ツバサ・クロニクル 鳥カゴの国の姫君
Encoded date : UTC 2017-01-30 21:19:48
Writing application : mkvmerge v9.7.1 ('Pandemonium') 64bit
Writing library : libebml v1.3.4 + libmatroska v1.4.5

Video
ID : 1
Format : VC-1
Codec ID : V_MS/VFW/FOURCC / WMV3
Codec ID/Info : Windows Media Video 9
Codec ID/Hint : WMV3
Duration : 34 min 35 s
Bit rate : 4 779 kb/s
Width : 1 920 pixels
Height : 1 080 pixels
Display aspect ratio : 16:9
Frame rate mode : Variable
Frame rate : 23.904 FPS
Bit depth : 8 bits
Compression mode : Lossy
Bits/(Pixel*Frame) : 0.096
Stream size : 1.15 GiB (84%)
Language : Japanese
Default : Yes
Forced : No

Audio #1
ID : 2
Format : AC-3
Format/Info : Audio Coding 3
Mode extension : CM (complete main)
Format settings, Endianness : Big
Codec ID : A_AC3
Duration : 34 min 35 s
Bit rate mode : Constant
Bit rate : 448 kb/s
Channel(s) : 6 channels
Channel positions : Front: L C R, Side: L R, LFE
Sampling rate : 48.0 kHz
Frame rate : 31.250 FPS (1536 spf)
Bit depth : 16 bits
Compression mode : Lossy
Stream size : 111 MiB (8%)
Title : Українська
Language : Ukrainian
Default : Yes
Forced : No

Audio #2
ID : 3
Format : AC-3
Format/Info : Audio Coding 3
Mode extension : CM (complete main)
Format settings, Endianness : Big
Codec ID : A_AC3
Duration : 34 min 35 s
Bit rate mode : Constant
Bit rate : 448 kb/s
Channel(s) : 6 channels
Channel positions : Front: L C R, Side: L R, LFE
Sampling rate : 48.0 kHz
Frame rate : 31.250 FPS (1536 spf)
Bit depth : 16 bits
Compression mode : Lossy
Stream size : 111 MiB (8%)
Title : Японська
Language : Japanese
Default : No
Forced : No

Text
ID : 4
Format : UTF-8
Codec ID : S_TEXT/UTF8
Codec ID/Info : UTF-8 Plain Text
Duration : 33 min 47 s
Bit rate : 71 b/s
Count of elements : 378
Stream size : 17.8 KiB (0%)
Title : Українські (повні)
Language : Ukrainian
Default : Yes
Forced : No
Скріншоти



Реліз від:
Переклад: Демо
Озвучення: Ейдж, Артимко, Бостон, Волкісса, Милуся, Аясе
Робота зі звуком: Ейдж
Постер: SigridMarialer

Озвучено спеціально до дня другої річниці команди "Робота Голосом"


Авторський реліз (завантажувати можна без реєстрації)
 Трекер:    Зареєстрований   

Завантажити / скачати аніме українською



відео для новачків



 Зареєстрований:   2017-02-02 20:50
 Розмір:   1.37 GB 
 Оцінка аніме:   7.7/10 (Голосів: 3)
   
ukropVadim 
Новенький


З нами з: 19.01.15
Востаннє: 21.08.17
Повідомлень: 12

2017-01-30 23:46  
з якою метою,шановний автор,ти постиш це лайно ,хіба є аудиторія яка дивиться на ці пориви хворої уяви ,на даному трекері ?
RobotaGolosom 
Відео Гуртом - фільмокрай
Відео Гуртом - фільмокрай


З нами з: 09.03.15
Востаннє: 24.08.17
Повідомлень: 160

2017-01-30 23:58  
ukropVadim
Якщо вам не сподобалось це не значить, що воно лайно. Не будьте обмеженими. На мою думку ця серія творів від Клемпа чудова. Й варта перегляду всім.

EvGaS 
Відео Гуртом - підтримка та поширення
Відео Гуртом - підтримка та поширення


З нами з: 27.02.12
Востаннє: 24.08.17
Повідомлень: 3379

2017-01-31 06:47  
RobotaGolosom, не всі можуть дорости до певних видів творчості чи осягнути їх. Це захисна реакція психіки на незрозуміле. Хоча… мені й самому таке фентезі навряд буде цікавим, та, мабуть, спочатку варто хоч трохи поглянути, перш ніж лаятись.

Ліхтарник, в правилах було наче що 1080р має бути в х264/х265. Сюди до розділу ця вимога навряд є прямою, але якщо є не вмв варіанти, то було б краще відео змінити, якщо якість не гірша. Мабуть.

hetzendorf 
Відео Гуртом - підтримка та поширення
Відео Гуртом - підтримка та поширення


З нами з: 23.07.15
Востаннє: 24.08.17
Повідомлень: 404

2017-01-31 13:23  
RobotaGolosom написано:
варта перегляду всім

Спочатку я подумав, що це з епопеї про картоловку Сакуру Кіномото, яка як на мене суто дитяча, але пішовши на anidb, виникло питання, а як одне з одним пов'язане? Спіноф? І чи дійсно сабж буде цікавим аудиторії від 13 до 83?

RobotaGolosom 
Відео Гуртом - фільмокрай
Відео Гуртом - фільмокрай


З нами з: 09.03.15
Востаннє: 24.08.17
Повідомлень: 160

2017-01-31 14:21  
hetzendorf
Буде цікавим. Головні герої ті самі (майже). Ови взагалі криваві не для дітей.

EvGaS
Пробував, ті що х264. Мають таки й же розмір але апскейл. Оригіналу бд в мережі немає

NeetScrool 
Відео Гуртом - фільмокрай
Відео Гуртом - фільмокрай


З нами з: 10.01.13
Востаннє: 24.08.17
Повідомлень: 2613

2017-01-31 19:25  
На рутрекері лежить hdtv.
EvGaS 
Відео Гуртом - підтримка та поширення
Відео Гуртом - підтримка та поширення


З нами з: 27.02.12
Востаннє: 24.08.17
Повідомлень: 3379

2017-01-31 19:36  
NeetScrool, сенс з БД зіскакувати, коли ТБ апріорі слабший?

Додано через 4 хвилини 52 секунди:


Ліхтарник 
VIP


З нами з: 16.09.14
Востаннє: 24.08.17
Повідомлень: 629

2017-02-02 20:55  
Увага!!! Оновлено роздачу в зв'язку з заміною української доріжки у якості звуку 5.1

hetzendorf 
Відео Гуртом - підтримка та поширення
Відео Гуртом - підтримка та поширення


З нами з: 23.07.15
Востаннє: 24.08.17
Повідомлень: 404

2017-02-09 01:39  
RobotaGolosom написано:
Ови взагалі криваві не для дітей.

Оце всі 35 хвилин втикав, усе очікував на кров, то крім подряпини Шяорана так ніц не дочекався >_< Та й взагалі не помилився — таки спіноф «Картоловки Сакури», фактично так само дитячий, як і оригінал.
Трійцю головних героїв вже без жодних купюр переселили до ефтанзійного світу, звільнивши від обов'язку відвідування школи. Ще й вилучили тему піхвостраждань Шяорана [Лі].
4/10

EvGaS написано:
в правилах було наче що 1080р має бути в х264/х265.

Отож, ну хоча б можна було б поставити якийсь більш-менш вільний кодек? Бо цей WMV 3 від некросовту VLC на Linux показувати відмовився, довелося на телефоні MX Player'ом дивитися.

Додано через 14 хвилин 24 секунди:

На imdb посилання помилкове, має бути: http://www.imdb.com/title/tt0466551/

RobotaGolosom 
Відео Гуртом - фільмокрай
Відео Гуртом - фільмокрай


З нами з: 09.03.15
Востаннє: 24.08.17
Повідомлень: 160

2017-02-09 03:07  
hetzendorf
Згоден, що досить дитячий. Серіали Тсубаси також одитячили відносно манги. А от в наступних овах око виривають і тд (але це вже тількі в овах)

EvGaS 
Відео Гуртом - підтримка та поширення
Відео Гуртом - підтримка та поширення


З нами з: 27.02.12
Востаннє: 24.08.17
Повідомлень: 3379

2017-02-09 13:49  
hetzendorf написано:
Оце всі 35 хвилин втикав, усе очікував на кров, то крім подряпини Шяорана так ніц не дочекався >_<

Мене вистачило на 3 хвилини, далі перемотками, та й взагалі, навіть файл не довантажив. Ну, не моє. Наче й знав, та перевірити варто було (а якщо?).
Але комусь, та й вподобає.

Ваш часовий пояс: GMT + 2 Години

Нова тема   Відповісти