Містер Хутен і Леді (Сезон 1) / Hooten & the Lady (Season 1) (2016) 1080p Ukr/Eng

Нові коментарі

Нова тема   Відповісти
Автор Повідомлення
Anonymous 







2017-01-30 21:23  
Містер Хутен і Леді (Сезон 1) / Hooten & the Lady (Season 1) (2016) 1080p Ukr/Eng


Містер Хутен і Леді (Сезон 1) / Hooten & the Lady (Season 1) (2016) 1080p Ukr/Eng


Жанр: драма, пригодницький
Країна: Велика Британія



Кінокомпанія: Red Planet Pictures, Indochina Productions
Режисер: Колін Тіг
Актори: Майкл Лендіс, Офелія Ловібонд, Джесіка Хайнс, Шон Паркес

Сюжет:
Авантюрист Хутен та співробітниця Британського музею Леді Олександра працюють разом, вони шукають стародавні артефакти. Історичні реліквії – це справжня цінність для головних героїв. Тому вони готові відправитися хоч на край світу, щоб забрати той чи інший предмет, колись пов’язаний з історичними особистостями.


Тривалість: 1 серія: 45 хвилин (цілком серій: 8)
Перелік серій

Hooten & the Lady. Season 1, Episode 1. The Amazon
Hooten & the Lady. Season 1, Episode 2. Rome
Hooten & the Lady. Season 1, Episode 3. Egypt
Hooten & the Lady. Season 1, Episode 4. Bhutan
Hooten & the Lady. Season 1, Episode 5. Ethiopia
Hooten & the Lady. Season 1, Episode 6. Moscow
Hooten & the Lady. Season 1, Episode 7. Cambodia
Hooten & the Lady. Season 1, Episode 8. The Caribbean
Якість: 1080p [iTunes Video]
Відео:
кодек:
розмір кадру: 1912 х 1072
бітрейт: 5109 кб/с

Аудіо # 1:
мова: українська
переклад: професійний дубльований
кодек: 2.0
бітрейт: 192 кб/с

Аудіо # 2:
мова: англійська
переклад: оригінал
кодек: 5.1
бітрейт: 384 кб/с

Джерело озвучення:
Info
General
Unique ID : 211470806584793967808291795492513643202 (0x9F17CBBE9094B67083D05D031155FAC2)
Format :
Format version : Version 4 / Version 2
File size : 1.79 GiB
Duration : 45mn 0s
Overall bit rate : 5 687 Kbps
Encoded date : UTC 2017-01-30 17:49:37
Writing application : v6.1.0 ('Old Devil') built on Mar 2 2013 14:32:37
Writing library : libebml v1.3.0 + v1.4.0

Video
ID : 1
Format : AVC
Format/Info : Advanced Video Codec
Format profile : [email protected]
Format settings, CABAC : Yes
Format settings, ReFrames : 4 frames
Codec ID : V_MPEG4/ISO/AVC
Duration : 45mn 0s
Bit rate : 4 998 Kbps
Width : 1 912 pixels
Height : 1 072 pixels
Display aspect ratio : 16:9
Frame rate mode : Constant
Frame rate : 25.000 fps
Color space : YUV
Chroma subsampling : 4:2:0
Bit depth : 8 bits
Scan type : Progressive
Bits/(Pixel*Frame) : 0.098
Stream size : 1.57 GiB (88%)
Title : Hooten & the Lady S01E01 1080p [Ukr.Eng] [Hurtom]
Language : English
Default : Yes
Forced : No
Color range : Limited
Color primaries : BT.709
Transfer characteristics : BT.709
Matrix coefficients : BT.709

Audio #1
ID : 2
Format : AC-3
Format/Info : Audio Coding 3
Mode extension : CM (complete main)
Format settings, Endianness : Big
Codec ID : A_AC3
Duration : 45mn 0s
Bit rate mode : Constant
Bit rate : 192 Kbps
Channel(s) : 2 channels
Channel positions : Front: L R
Sampling rate : 48.0 KHz
Frame rate : 31.250 fps (1536 spf)
Compression mode : Lossy
Stream size : 61.8 MiB (3%)
Title : Ukr. Dubbing | ICTV | 2.0 / 192kbps
Language : Ukrainian
Default : Yes
Forced : No

Audio #2
ID : 3
Format : AC-3
Format/Info : Audio Coding 3
Mode extension : CM (complete main)
Format settings, Endianness : Big
Codec ID : A_AC3
Duration : 45mn 0s
Bit rate mode : Constant
Bit rate : 384 Kbps
Channel(s) : 6 channels
Channel positions : Front: L C R, Side: L R, LFE
Sampling rate : 48.0 KHz
Frame rate : 31.250 fps (1536 spf)
Compression mode : Lossy
Stream size : 124 MiB (7%)
Title : Eng. Original | 5.1 / 384kbps
Language : English
Default : No
Forced : No
Скріншоти








Джерело:
За опис та доріжку подяки: slavik_v_z, Sando7
Опис та доріжка були взяті із цього релізу
Особиста оцінка: 10 - без зайвих вагань рекомендую всім!



Не забуваємо дякувати!


Бронзовий реліз (на рейтинг впливає 75% завантаженого)
 Трекер:    Зареєстрований   

Завантажити / скачати серіал українською



відео для новачків



 Зареєстрований:   2017-02-06 17:07
 Розмір:   14.04 GB 
 Оцінка серіалу:   9.3/10 (Голосів: 16)
   
bandera21 
Свій


З нами з: 10.11.12
Востаннє: 26.11.20
Повідомлень: 90

2018-11-04 21:46  
Станьте будь-ласка хтось на роздачу!
anturio 
Новенький


З нами з: 18.07.10
Востаннє: 25.11.20
Повідомлень: 3

2018-11-16 13:16  
Роздаю, Завантажуйте поки я добрий )
мхйл 
Новенький


З нами з: 02.01.20
Востаннє: 23.11.20
Повідомлень: 3

2020-01-02 19:44  
Роздайте, будь ласка.
Ваш часовий пояс: GMT + 2 Години

Нова тема   Відповісти