Вбивства у Черрі-Фолс / Cherry Falls (2000) 720p Ukr/Eng | Sub Eng

Нові коментарі

Нова тема   Відповісти
Останній раз роздавалося staf777 (2017-10-20)
Автор Повідомлення
staf777 
Відео Гуртом - підтримка та поширення
Відео Гуртом - підтримка та поширення


З нами з: 16.11.16
Востаннє: 20.10.17
Повідомлень: 522

2017-01-30 22:20  
Вбивства у Черрі-Фолс / Cherry Falls (2000) 720p Ukr/Eng | Sub Eng

Вбивства у Черрі-Фолс / Cherry Falls (2000) 720p Ukr/Eng | Sub Eng


Жанр: трилер, жахи
Країна: США



Кінокомпанія: Rogue Pictures, Fresh Produce Company, Industry Entertainment
Режисер: Джеффрі Райт
Актори: Бріттані Мерфі, Джей Мор, Майкл Бін, Джессі Бредфорд, Ді Джей Куоллс, Кенді Кларк та інші

Сюжет:
Одного разу в містечку Черрі-Фолс відбувається вбивство закоханої парочки з місцевої школи. Шериф Маркен починає розслідування, але майже одразу ж вбивають ще одну дівчину. Стає ясно, що маніяк убиває тільки незайманих. І доки поліція намагається вийти на його слід, молодь сама знаходить спосіб свого порятунку.


Тривалість: 01:27:44
Якість: 720p
Відео:
кодек:
розмір кадру: 1280x692
бітрейт: 5785 кб/с

Аудіо # 1:
мова: українська
переклад: багатоголосий закадровий
кодек: 2.0
бітрейт: 192 кб/с

Аудіо # 2:
мова: англійська
переклад: оригінал
кодек: 5.1
бітрейт: 640 кб/с

Субтитри:
мова: англійська
тип: програмні (м'які)
формат: *.srt
Info
General
Unique ID : 248641038487171147624718269235067221726 (0xBB0E85AB232728D09C0D1F7E8DE5F6DE)
Complete name : P:\HD українською » Фільми в HD\Жахи\Cherry Falls (2000) [Ukr,Eng sub.Eng] 720p [Hurtom].
Format :
Format version : Version 4 / Version 2
File size : 4.23 GiB
Duration : 1 h 31 min
Overall bit rate : 6 620 kb/s
Movie name : Cherry Falls (2000) [Ukr,Eng sub.Eng] 720p [Hurtom]
Encoded date : UTC 2017-01-31 08:07:30
Writing application : mkvmerge v9.8.0 ('Kuglblids') 64bit
Writing library : libebml v1.3.4 + libmatroska v1.4.5
Cover : Yes
Attachments : cover.jpg

Video
ID : 1
Format : AVC
Format/Info : Advanced Video Codec
Format profile : [email protected]
Format settings, CABAC : Yes
Format settings, ReFrames : 9 frames
Codec ID : V_MPEG4/ISO/AVC
Duration : 1 h 31 min
Bit rate : 5 786 kb/s
Width : 1 280 pixels
Height : 692 pixels
Display aspect ratio : 1.85:1
Frame rate mode : Constant
Frame rate : 23.976 (24000/1001) FPS
Color space : YUV
Chroma subsampling : 4:2:0
Bit depth : 8 bits
Scan type : Progressive
Bits/(Pixel*Frame) : 0.272
Stream size : 3.70 GiB (87%)
Writing library : core 148 r2665+53 6629127 t_mod_Custom [[email protected] X86_64]
Encoding settings : cabac=1 / ref=9 / deblock=1:-3:-3 / analyse=0x3:0x133 / me=umh / subme=10 / psy=1 / fade_compensate=0.00 / psy_rd=1.00:0.05 / mixed_ref=1 / me_range=24 / chroma_me=1 / trellis=2 / 8x8dct=1 / cqm=0 / deadzone=21,11 / fast_pskip=0 / chroma_qp_offset=-3 / threads=6 / lookahead_threads=1 / sliced_threads=0 / nr=0 / decimate=1 / interlaced=0 / bluray_compat=0 / constrained_intra=0 / fgo=0 / bframes=9 / b_pyramid=2 / b_adapt=2 / b_bias=0 / direct=3 / weightb=1 / open_gop=0 / weightp=2 / keyint=250 / keyint_min=23 / scenecut=40 / intra_refresh=0 / rc_lookahead=60 / rc=crf / mbtree=0 / crf=16.5000 / qcomp=0.65 / qpmin=0:0:0 / qpmax=69:69:69 / qpstep=4 / vbv_maxrate=62500 / vbv_bufsize=78125 / crf_max=0.0 / nal_hrd=none / filler=0 / ip_ratio=1.40 / pb_ratio=1.30 / aq=1:0.70 / aq-sensitivity=10.00 / aq-factor=1.00:1.00:1.00 / aq2=0 / aq3=0
Language : English
Default : Yes
Forced : No
Color range : Limited
Color primaries : BT.709
Transfer characteristics : BT.709
Matrix coefficients : BT.709

Audio #1
ID : 2
Format : AC-3
Format/Info : Audio Coding 3
Mode extension : CM (complete main)
Format settings, Endianness : Big
Codec ID : A_AC3
Duration : 1 h 31 min
Bit rate mode : Constant
Bit rate : 192 kb/s
Channel(s) : 2 channels
Channel positions : Front: L R
Sampling rate : 48.0 kHz
Frame rate : 31.250 FPS (1536 spf)
Bit depth : 16 bits
Compression mode : Lossy
Stream size : 126 MiB (3%)
Title : UA- НЛО-TV
Language : Ukrainian
Default : Yes
Forced : Yes

Audio #2
ID : 3
Format : AC-3
Format/Info : Audio Coding 3
Mode extension : CM (complete main)
Format settings, Endianness : Big
Codec ID : A_AC3
Duration : 1 h 31 min
Bit rate mode : Constant
Bit rate : 640 kb/s
Channel(s) : 6 channels
Channel positions : Front: L C R, Side: L R, LFE
Sampling rate : 48.0 kHz
Frame rate : 31.250 FPS (1536 spf)
Bit depth : 16 bits
Compression mode : Lossy
Stream size : 419 MiB (10%)
Language : English
Default : No
Forced : No

Text
ID : 4
Format : UTF-8
Codec ID : S_TEXT/UTF8
Codec ID/Info : UTF-8 Plain Text
Duration : 1 h 24 min
Bit rate : 50 b/s
Count of elements : 1030
Stream size : 31.4 KiB (0%)
Language : English
Default : No
Forced : No

Menu
00:00:00.000 : en:00:00:00.000
00:07:44.338 : en:00:07:44.338
00:16:02.378 : en:00:16:02.378
00:22:22.883 : en:00:22:22.883
00:29:57.045 : en:00:29:57.045
00:37:21.739 : en:00:37:21.739
00:42:32.550 : en:00:42:32.550
00:52:28.979 : en:00:52:28.979
00:59:19.264 : en:00:59:19.264
01:08:08.709 : en:01:08:08.709
01:14:40.225 : en:01:14:40.225
01:23:30.755 : en:01:23:30.755
Скріншоти




Джерело: &
За запис з ТБ подяка пану POMEO


Срібний реліз (на рейтинг впливає 50% завантаженого)
 Трекер:    Зареєстрований   

Завантажити / скачати фільм українською



відео для новачків



 Зареєстрований:   2017-01-31 11:44
 Розмір:   4.23 GB 
 Оцінка фільму:   10/10 (Голосів: 3)
   
Інші релізи
   Вбивства у Черрі-Фолс / Cherry Falls (2000) krigg070  2 / 0   1.44 GB   2016-03-13 12:35 
Ваш часовий пояс: GMT + 2 Години

Нова тема   Відповісти