Вторгнення динозавра / The Host / Gwoemul (2006) 720p 2хUkr/Kor | Sub Eng

Нові коментарі

Нова тема   Відповісти
Останній раз роздавалося staf777 (2017-10-22)
Автор Повідомлення
staf777 
Відео Гуртом - підтримка та поширення
Відео Гуртом - підтримка та поширення


З нами з: 16.11.16
Востаннє: 22.10.17
Повідомлень: 522

2017-01-30 21:37  
Вторгнення динозавра / The Host / Gwoemul (2006) 720p 2хUkr/Kor | Sub Eng

Вторгнення динозавра / The Host / Gwoemul (2006) 720p 2хUkr/Kor | Sub Eng


Жанр: драма, жахи
Країна: Південна Корея



Кінокомпанія: Chungeorahm Film
Режисер: Джун-го Бон (Joon-ho Bong)
Актори: Канґ-го Сонґ (Kang-ho Song), Гі-бонґ Бьон (Hie-bong Byeon), Гає-іл Парк (Hae-il Park), Дю-на Бай (Du-na Bae), Аш-сунг Ко (Ah-sung Ko) та інші.

Сюжет:
Під час утилізації формальдегіду з американської військової бази в річку Хан виливається величезна кількість токсичних речовин. Через деякий час в річці заводиться страшне чудовисько.

Є багато бажаючих посидіти в Сеулі влітку на березі річки, і торгівля там йде жваво. У власника кіоску з пивом та закусками Хі-бона двоє бовдурів-синів і розумниця-дочка, відома на всю країну медалістка зі стрільби з лука. І звичайно ж старий, як і все сімейство, дуже любить єдину онуку Хен-зі. Але якось річкове чудовисько одного дня ​​вилізло поганяти туристів по бережку і прихопило Хен-зі з собою...


Тривалість: 01:59:52
Якість: 720p
Відео:
кодек:
розмір кадру: 1280x694
бітрейт: 9024 кб/с

Аудіо # 1:
мова: українська
переклад: багатоголосий закадровий
кодек: 2.0
бітрейт: 192 кб/с

Аудіо # 2:
мова: українська
переклад: двоголосий закадровий
кодек: 2.0
бітрейт: 192 кб/с

Аудіо # 3:
мова: корейська
переклад: оригінал
кодек: 5.1
бітрейт: 640 кб/с

Субтитри:
мова: англійська
тип: програмні (м'які)
формат: *.srt
Info
General
Unique ID : 204812761600677196385682934534685834880 (0x9A1580C846256364888D55FF3DAFBE80)
Complete name : P:\HDClub\Gwoemul (2006) [2xUkr,Kor sub.Eng] 720p [Hurtom].
Format :
Format version : Version 4 / Version 2
File size : 8.57 GiB
Duration : 1 h 59 min
Overall bit rate : 10.2 Mb/s
Movie name : Gwoemul (2006) [2xUkr,Kor sub.Eng] 720p [Hurtom]
Encoded date : UTC 2017-01-30 18:10:02
Writing application : mkvmerge v9.8.0 ('Kuglblids') 64bit
Writing library : libebml v1.3.4 + libmatroska v1.4.5

Video
ID : 1
Format : AVC
Format/Info : Advanced Video Codec
Format profile : High@L4.1
Format settings, CABAC : Yes
Format settings, ReFrames : 8 frames
Codec ID : V_MPEG4/ISO/AVC
Duration : 1 h 59 min
Bit rate : 9 204 kb/s
Width : 1 280 pixels
Height : 694 pixels
Display aspect ratio : 1.85:1
Frame rate mode : Constant
Frame rate : 23.976 (24000/1001) FPS
Color space : YUV
Chroma subsampling : 4:2:0
Bit depth : 8 bits
Scan type : Progressive
Bits/(Pixel*Frame) : 0.432
Stream size : 7.71 GiB (90%)
Title : The Host / Gwoemul (2006)
Writing library : core 122 r2184 5c85e0a
Encoding settings : cabac=1 / ref=8 / deblock=1:-3:-3 / analyse=0x3:0x113 / me=tesa / subme=11 / psy=1 / psy_rd=1.13:0.00 / mixed_ref=1 / me_range=16 / chroma_me=1 / trellis=2 / 8x8dct=1 / cqm=0 / deadzone=21,11 / fast_pskip=0 / chroma_qp_offset=-2 / threads=12 / sliced_threads=0 / nr=0 / decimate=0 / interlaced=0 / bluray_compat=0 / constrained_intra=0 / bframes=7 / b_pyramid=2 / b_adapt=2 / b_bias=0 / direct=3 / weightb=1 / open_gop=0 / weightp=2 / keyint=250 / keyint_min=23 / scenecut=40 / intra_refresh=0 / rc=crf / mbtree=0 / crf=18.1 / qcomp=0.70 / qpmin=0 / qpmax=69 / qpstep=4 / ip_ratio=1.40 / pb_ratio=1.30 / aq=1:0.67
Language : English
Default : No
Forced : No

Audio #1
ID : 2
Format : AC-3
Format/Info : Audio Coding 3
Mode extension : CM (complete main)
Format settings, Endianness : Big
Codec ID : A_AC3
Duration : 1 h 59 min
Bit rate mode : Constant
Bit rate : 192 kb/s
Channel(s) : 2 channels
Channel positions : Front: L R
Sampling rate : 48.0 kHz
Frame rate : 31.250 FPS (1536 spf)
Bit depth : 16 bits
Compression mode : Lossy
Stream size : 165 MiB (2%)
Title : 2.0 @ 192 kbps - MVO, ICTV
Language : Ukrainian
Default : Yes
Forced : Yes

Audio #2
ID : 3
Format : AC-3
Format/Info : Audio Coding 3
Mode extension : CM (complete main)
Format settings, Endianness : Big
Codec ID : A_AC3
Duration : 1 h 59 min
Bit rate mode : Constant
Bit rate : 192 kb/s
Channel(s) : 2 channels
Channel positions : Front: L R
Sampling rate : 48.0 kHz
Frame rate : 31.250 FPS (1536 spf)
Bit depth : 16 bits
Compression mode : Lossy
Stream size : 165 MiB (2%)
Title : 2.0 @ 192 kbps - DVO, 1+1
Language : Ukrainian
Default : No
Forced : Yes

Audio #3
ID : 4
Format : AC-3
Format/Info : Audio Coding 3
Mode extension : CM (complete main)
Format settings, Endianness : Big
Codec ID : A_AC3
Duration : 1 h 59 min
Bit rate mode : Constant
Bit rate : 640 kb/s
Channel(s) : 6 channels
Channel positions : Front: L C R, Side: L R, LFE
Sampling rate : 48.0 kHz
Frame rate : 31.250 FPS (1536 spf)
Bit depth : 16 bits
Compression mode : Lossy
Delay relative to video : 12 ms
Stream size : 549 MiB (6%)
Title : 5.1 @ 640 kbps
Language : Korean
Default : No
Forced : No

Text
ID : 5
Format : UTF-8
Codec ID : S_TEXT/UTF8
Codec ID/Info : UTF-8 Plain Text
Duration : 1 h 50 min
Bit rate : 34 b/s
Count of elements : 999
Stream size : 27.8 KiB (0%)
Language : English
Default : No
Forced : No

Menu
00:00:00.000 : :00:00:00.000
00:05:55.981 : :00:05:57.857
00:14:53.768 : :00:14:55.644
00:24:28.426 : :00:24:30.302
00:33:06.360 : :00:33:08.236
00:42:23.375 : :00:42:25.251
00:50:58.806 : :00:51:00.682
00:54:21.592 : :00:54:23.468
01:00:36.425 : :01:00:38.301
01:05:11.616 : :01:05:13.492
01:16:42.557 : :01:16:44.433
01:25:34.546 : :01:25:36.422
01:29:15.851 : :01:29:17.727
01:33:40.198 : :01:33:42.074
01:39:16.951 : :01:39:18.827
01:44:41.442 : :01:44:43.318
Скріншоти



Джерело: &
Подяка:
gig_Panas за надану сиру доріжку від студії "1+1".
robotron005 за зведення обох доріжок

Особиста оцінка: 0 - не дивився


Бронзовий реліз (на рейтинг впливає 75% завантаженого)
 Трекер:    Зареєстрований   

Завантажити / скачати фільм українською



відео для новачків



 Зареєстрований:   2017-01-30 21:37
 Розмір:   8.57 GB 
 Оцінка фільму:   10/10 (Голосів: 2)
   
Інші релізи
t_telyuk 
Новенький


З нами з: 13.06.09
Востаннє: 23.10.17
Повідомлень: 24

2017-01-30 22:18  
опис сюжету перекладено гуглом з мордорської - невже важко перечитати і побачити як воно не в'яжеться докупи
staf777 
Відео Гуртом - підтримка та поширення
Відео Гуртом - підтримка та поширення


З нами з: 16.11.16
Востаннє: 22.10.17
Повідомлень: 522

2017-01-30 22:26  
t_telyuk
Опис взяв ось тут https://toloka.to/t29197 які ще питання

AMOROSO 
Частий відвідувач


З нами з: 01.01.12
Востаннє: 20.10.17
Повідомлень: 27

2017-02-07 20:51  
Не зрозуміло чому рейтинг 7.. фільм мяко кажучи посередній
igor911 
Відео Гуртом
Відео Гуртом


З нами з: 18.01.08
Востаннє: 24.10.17
Повідомлень: 7988

2017-02-07 23:14  
AMOROSO написано:
Не зрозуміло чому рейтинг 7

мабуть азіати накурутили.

tpolit 
Поважний учасник


З нами з: 10.01.15
Востаннє: 24.10.17
Повідомлень: 165

2017-06-17 20:23  
Фільм, м'яко кажучи, шедевральний. Дякую.
Ваш часовий пояс: GMT + 2 Години

Нова тема   Відповісти