Спуск: Частина 2 / The Descent: Part 2 (2009) 720p 2xUkr/Eng | Sub Eng

Нові коментарі

Нова тема   Відповісти
Автор Повідомлення
staf777 
Відео Гуртом - підтримка та поширення
Відео Гуртом - підтримка та поширення


З нами з: 16.11.16
Востаннє: 29.09.20
Повідомлень: 4073

2017-01-30 19:04  
Спуск: Частина 2 / The Descent: Part 2 (2009) 720p 2xUkr/Eng | Sub Eng

Спуск: Частина 2 / The Descent: Part 2 (2009) 720p 2xUkr/Eng | Sub Eng


Жанр: жахи, пригодницький, трилер
Країна: Велика Британія



Кінокомпанія: Celador Films
Режисер: Джон Гарріс / Jon Harris
Актори: Шона Макдоналд / Shauna Macdonald, Наталі Джексон Мендоса / Natalie Jackson Mendoza, Майкл Дж. Рейнолдс / Michael J. Reynolds, Джессіка Вільямс / Jessika Williams, Даґлас Годж / Douglas Hodge, Джошуа Даллас / Joshua Dallas, Анна Скеллерн / Anna Skellern, Ґаван О'Герлігай / Gavan O'Herlihy, Крістен Каммінґс / Krysten Cummings, Даґ Баллард / Doug Ballard та інші

Сюжет:
Захоплююча експедиція углиб гірських печер обертається для компанії подруг жахливою трагедією. Вижити вдається лише одній дівчині. Поранена і збожеволіла від страху, вона звертається в місцеву поліцію. Шериф не вірить в страшну історію, але споряджає експедицію, щоб перевірити ущелину, де нібито сталася трагедія. В результаті гірського обвалу рятувальники опинилися відрізаними від світу. Вони вирішили знайти інший вихід в печері і продовжили спуск. І, чим глибше вони спускаються, тим сильніше стигне кров в жилах, і тим більш ясними стають страхітливі обставини загибелі подруг Сари...


Тривалість: 01:33:54
Якість: 720p
Відео:
кодек:
розмір кадру: 1280x544
бітрейт: 7368 кб/с

Аудіо # 1:
мова: українська
переклад: двоголосий закадровий
кодек: 5.1
бітрейт: 448 кб/с

Аудіо # 2:
мова: українська
переклад: двоголосий закадровий
кодек: 2.0
бітрейт: 192 кб/с

Аудіо # 3:
мова: англійська
переклад: оригінал
кодек: 5.1
бітрейт: 1509 кб/с

Аудіо # 4:
мова: англійська
переклад: Commentary
кодек: 2.0
бітрейт: 192 кб/с

Субтитри:
мова: англійська
тип: програмні (м'які)
формат: *.srt
Info
General
Unique ID : 237854313923491453765435280610743207798 (0xB2F11316474DCCD2ADCD23576EEAC776)
Complete name : P:\HDClub\The Descent Part 2 (2009) [Ukr,Eng sub.Eng] 720p [Hurtom].
Format :
Format version : Version 4 / Version 2
File size : 6.37 GiB
Duration : 1 h 33 min
Overall bit rate : 9 713 kb/s
Movie name : The Descent: Part 2 (2009) [2xUkr,Eng sub.Eng] 720p [Hurtom]
Encoded date : UTC 2017-01-30 15:35:55
Writing application : v9.8.0 ('Kuglblids') 64bit
Writing library : libebml v1.3.4 + v1.4.5
Cover : Yes
Attachments : xlog.txt / cover.jpg

Video
ID : 1
Format : AVC
Format/Info : Advanced Video Codec
Format profile : [email protected]
Format settings, CABAC : Yes
Format settings, ReFrames : 12 frames
Codec ID : V_MPEG4/ISO/AVC
Duration : 1 h 33 min
Bit rate : 7 369 kb/s
Width : 1 280 pixels
Height : 544 pixels
Display aspect ratio : 2.35:1
Frame rate mode : Constant
Frame rate : 23.976 (24000/1001) FPS
Color space : YUV
Chroma subsampling : 4:2:0
Bit depth : 8 bits
Scan type : Progressive
Bits/(Pixel*Frame) : 0.441
Stream size : 4.83 GiB (76%)
Title : Release for HDCLUB
Writing library : core 146 r2538kMod 121396c
Encoding settings : cabac=1 / ref=12 / deblock=1:-2:-2 / analyse=0x3:0x133 / me=umh / subme=11 / psy=1 / fade_compensate=0.00 / psy_rd=1.00:0.00 / mixed_ref=1 / me_range=32 / chroma_me=1 / trellis=2 / 8x8dct=1 / cqm=0 / deadzone=21,11 / fast_pskip=1 / chroma_qp_offset=-2 / threads=12 / lookahead_threads=2 / sliced_threads=0 / nr=0 / decimate=1 / interlaced=0 / bluray_compat=0 / constrained_intra=0 / fgo=0 / bframes=8 / b_pyramid=2 / b_adapt=2 / b_bias=0 / direct=1 / weightb=1 / open_gop=0 / weightp=2 / keyint=250 / keyint_min=23 / scenecut=40 / intra_refresh=0 / rc_lookahead=60 / rc=crf / mbtree=0 / crf=16.5000 / qcomp=0.70 / qpmin=0 / qpmax=69 / qpstep=4 / vbv_maxrate=62500 / vbv_bufsize=78125 / crf_max=0.0 / nal_hrd=none / filler=0 / ip_ratio=1.40 / pb_ratio=1.30 / aq=1:0.80
Language : English
Default : Yes
Forced : No
Color range : Limited
Color primaries : BT.709
Transfer characteristics : BT.709
Matrix coefficients : BT.709

Audio #1
ID : 2
Format : AC-3
Format/Info : Audio Coding 3
Mode extension : CM (complete main)
Format settings, Endianness : Big
Codec ID : A_AC3
Duration : 1 h 33 min
Bit rate mode : Constant
Bit rate : 448 kb/s
Channel(s) : 6 channels
Channel positions : Front: L C R, Side: L R, LFE
Sampling rate : 48.0 kHz
Frame rate : 31.250 FPS (1536 spf)
Bit depth : 16 bits
Compression mode : Lossy
Stream size : 301 MiB (5%)
Title : DVO
Language : Ukrainian
Default : Yes
Forced : Yes

Audio #2
ID : 3
Format : AC-3
Format/Info : Audio Coding 3
Mode extension : CM (complete main)
Format settings, Endianness : Big
Codec ID : A_AC3
Duration : 1 h 33 min
Bit rate mode : Constant
Bit rate : 192 kb/s
Channel(s) : 2 channels
Channel positions : Front: L R
Sampling rate : 48.0 kHz
Frame rate : 31.250 FPS (1536 spf)
Bit depth : 16 bits
Compression mode : Lossy
Stream size : 129 MiB (2%)
Title : DVO-TET
Language : Ukrainian
Default : No
Forced : Yes

Audio #3
ID : 4
Format :
Format/Info : Digital Theater Systems
Mode : 16
Format settings, Endianness : Big
Codec ID : A_DTS
Duration : 1 h 33 min
Bit rate mode : Constant
Bit rate : 1 509 kb/s
Channel(s) : 6 channels
Channel positions : Front: L C R, Side: L R, LFE
Sampling rate : 48.0 kHz
Frame rate : 93.750 FPS (512 spf)
Bit depth : 16 bits
Compression mode : Lossy
Stream size : 1 013 MiB (16%)
Language : English
Default : No
Forced : No

Audio #4
ID : 5
Format : AC-3
Format/Info : Audio Coding 3
Mode extension : CM (complete main)
Format settings, Endianness : Big
Codec ID : A_AC3
Duration : 1 h 33 min
Bit rate mode : Constant
Bit rate : 192 kb/s
Channel(s) : 2 channels
Channel positions : Front: L R
Sampling rate : 48.0 kHz
Frame rate : 31.250 FPS (1536 spf)
Bit depth : 16 bits
Compression mode : Lossy
Stream size : 129 MiB (2%)
Title : Commentary With Director Jon Harris and Actors Shauna MacDonald, Krysten Cummings & Anna
Language : English
Default : No
Forced : No

Text
ID : 6
Format : UTF-8
Codec ID : S_TEXT/UTF8
Codec ID/Info : UTF-8 Plain Text
Duration : 1 h 27 min
Bit rate : 26 b/s
Count of elements : 510
Stream size : 17.0 KiB (0%)
Language : English
Default : No
Forced : No

Menu
00:00:00.000 : en:Opening Credits
00:03:49.062 : en:Survivor
00:10:42.433 : en:Chapel Mine
00:16:23.190 : en:New Entrance
00:20:09.916 : en:Down
00:28:01.888 : en:Flashback
00:32:02.337 : en:Trapped
00:38:37.481 : en:Camera Reveals
00:43:52.295 : en:Escape
00:49:58.704 : en:Radioing For Help
00:54:05.533 : en:Last Message
00:59:02.956 : en:Saved By Juno
01:07:31.630 : en:Finding A Way Out
01:12:19.167 : en:They Are Death
01:18:19.611 : en:Confrontation
01:22:58.765 : en:Working Together
Скріншоти
Подяка за запис звуку з ТБ п.ratbol та п.Delight за його синхронізацію

Джерело: &
Особиста оцінка: 8 - мені сподобалося



 Трекер:    Зареєстрований   

Завантажити / скачати фільм українською



відео для новачків



 Зареєстрований:   2017-01-30 19:22
 Розмір:   6.37 GB 
 Оцінка фільму:   8.7/10 (Голосів: 12)
   
Інші релізи
strannik18 
Новенький


З нами з: 19.01.13
Востаннє: 27.09.20
Повідомлень: 14

2017-02-03 17:05  
фільм бомбезний, хто не дивився обов'язково подивитись ввечері Happy
Ваш часовий пояс: GMT + 2 Години

Нова тема   Відповісти