Джуніор / Junior (1994) 720р Ukr/Eng | Sub Eng

Нові коментарі

Нова тема   Відповісти
Останній раз роздавалося sguiklio (2017-08-17)
Автор Повідомлення
staf777 
Відео Гуртом - підтримка та поширення
Відео Гуртом - підтримка та поширення


З нами з: 16.11.16
Востаннє: 16.08.17
Повідомлень: 522

2017-01-30 15:59  
Джуніор / Junior (1994) 720р Ukr/Eng | Sub Eng

Джуніор / Junior (1994) 720р Ukr/Eng | Sub Eng


Жанр: комедія, фантастика, мелодрама
Країна: США



Кінокомпанія: Universal Pictures, Northern Lights Entertainment
Режисер: Айвен Райтман / Ivan Reitman
Актори: Арнольд Шварценеґґер / Arnold Schwarzenegger, Денні ДеВіто / Danny DeVito, Емма Томпсон / Emma Thompson, Френк Ланджелла / Frank Langella, Памела Рід / Pamela Reed та інші

Сюжет:
Для того, щоб довести силу винайдених пігулок проти викиднів у вагітних жінок, одному з лікарів, в житті - боязкій і сором'язливій людині - належить стати...першим в світі вагітним чоловіком!
рейтинг MPAA: PG-13 - дітям до 13 років перегляд не бажаний
Вікова категорія: 0+


Тривалість: 01:49:57
Якість: 720р
Відео:
кодек:
розмір кадру: 1280x694
бітрейт: 6839 кб/с

Аудіо # 1:
мова: українська
переклад: двоголосий закадровий
кодек: 2.0
бітрейт: 192 кб/с

Аудіо # 2:
мова: англійська
переклад: оригінал
кодек: 5.1
бітрейт: 1509 кб/с

Субтитри:
мова: англійська
тип: програмні (м'які)
формат: *.srt
Info
General
Unique ID : 180377588970066187280751134110565688534 (0x87B375C1DD3998DBB45A6F96B53264D6)
Complete name : P:\HDClub\ Junior (1994) [Ukr,Eng sub.Eng] 720p [Hurtom].
Format :
Format version : Version 4 / Version 2
File size : 6.69 GiB
Duration : 1h 49mn
Overall bit rate : 8 714 Kbps
Movie name : Junior (1994) [Ukr,Eng sub.Eng] 720p [Hurtom]
Encoded date : UTC 2017-01-30 12:31:23
Writing application : mkvmerge v9.8.0 ('Kuglblids') 64bit
Writing library : libebml v1.3.4 + libmatroska v1.4.5
Attachements : cover.jpg / logfile.log
DURATION : 01:43:19.005000000
NUMBER_OF_FRAMES : 1391
NUMBER_OF_BYTES : 48134
_STATISTICS_WRITING_APP : mkvmerge v9.8.0 ('Kuglblids') 64bit
_STATISTICS_WRITING_DATE_UTC : 2017-01-30 12:31:23
_STATISTICS_TAGS : BPS DURATION NUMBER_OF_FRAMES NUMBER_OF_BYTES

Video
ID : 1
Format : AVC
Format/Info : Advanced Video Codec
Format profile : [email protected]
Format settings, CABAC : Yes
Format settings, ReFrames : 8 frames
Codec ID : V_MPEG4/ISO/AVC
Duration : 1h 49mn
Bit rate : 6 839 Kbps
Width : 1 280 pixels
Height : 694 pixels
Display aspect ratio : 1.85:1
Frame rate mode : Constant
Frame rate : 23.976 fps
Color space : YUV
Chroma subsampling : 4:2:0
Bit depth : 8 bits
Scan type : Progressive
Bits/(Pixel*Frame) : 0.321
Stream size : 5.25 GiB (78%)
Title : Junior (1994) - Release for HDCLUB
Writing library : core 148 r2744kMod b97ae06
Encoding settings : cabac=1 / ref=8 / deblock=1:-3:-3 / analyse=0x3:0x133 / me=umh / subme=11 / psy=1 / fade_compensate=0.00 / psy_rd=1.05:0.15 / mixed_ref=1 / me_range=32 / chroma_me=1 / trellis=2 / 8x8dct=1 / cqm=0 / deadzone=21,11 / fast_pskip=0 / chroma_qp_offset=-3 / threads=12 / lookahead_threads=3 / sliced_threads=0 / nr=0 / decimate=0 / interlaced=0 / bluray_compat=0 / constrained_intra=0 / bframes=10 / b_pyramid=2 / b_adapt=2 / b_bias=0 / direct=3 / weightb=1 / open_gop=0 / weightp=2 / keyint=240 / keyint_min=23 / scenecut=40 / intra_refresh=0 / rc_lookahead=50 / rc=crf / mbtree=0 / crf=17.1000 / qcomp=0.60 / qpmin=0 / qpmax=69 / qpstep=4 / vbv_maxrate=62500 / vbv_bufsize=78125 / crf_max=0.0 / nal_hrd=none / filler=0 / ip_ratio=1.30 / pb_ratio=1.20 / aq=3:0.75
Language : English
Default : Yes
Forced : No
Color range : Limited
Color primaries : BT.709
Transfer characteristics : BT.709
Matrix coefficients : BT.709

Audio #1
ID : 2
Format : AC-3
Format/Info : Audio Coding 3
Mode extension : CM (complete main)
Format settings, Endianness : Big
Codec ID : A_AC3
Duration : 1h 49mn
Bit rate mode : Constant
Bit rate : 192 Kbps
Channel(s) : 1 channel
Channel positions : Front: C
Sampling rate : 48.0 KHz
Bit depth : 16 bits
Compression mode : Lossy
Stream size : 151 MiB (2%)
Title : UA-DVO Новий канал
Language : Ukrainian
Default : Yes
Forced : Yes

Audio #2
ID : 3
Format :
Format/Info : Digital Theater Systems
Mode : 16
Format settings, Endianness : Big
Codec ID : A_DTS
Duration : 1h 49mn
Bit rate mode : Constant
Bit rate : 1 509 Kbps
Channel(s) : 6 channels
Channel positions : Front: L C R, Side: L R, LFE
Sampling rate : 48.0 KHz
Bit depth : 16 bits
Compression mode : Lossy
Stream size : 1.16 GiB (17%)
Title : English
Language : English
Default : No
Forced : No

Text
ID : 4
Format : UTF-8
Codec ID : S_TEXT/UTF8
Codec ID/Info : UTF-8 Plain Text
Title : English
Language : English
Default : No
Forced : No

Menu
00:00:00.000 : :Main Titles
00:04:48.955 : :The FDA Hearing
00:12:53.272 : :Stealing the Egg
00:23:31.243 : :I'm Pregnant!
00:34:35.364 : :I'm Not Myself
00:40:19.208 : :The Dance
01:02:21.988 : :Banes Butts In
01:11:59.773 : :The Other Mother
01:25:02.597 : :Diana Arrives
01:33:07.999 : :The Ambush
01:39:08.525 : :That's Your Baby
01:43:40.797 : :One Year Later
Скріншоти




Джерело: &
Ріп відео, оригінальні звук та субтитри - MGK (HDClub); українська доріжка - NemoInFire (Гуртом)
Особиста оцінка: 0 - не дивився


Срібний реліз (на рейтинг впливає 50% завантаженого)
 Трекер:    Зареєстрований   

Завантажити / скачати фільм українською



відео для новачків



 Зареєстрований:   2017-01-30 16:06
 Розмір:   6.69 GB 
 Оцінка фільму:   10/10 (Голосів: 4)
   
Інші релізи
   Джуніор / Junior (1994) Ukr/Eng Arsenfpu  1 / 0   2.18 GB   2016-01-13 16:02 
   Джуніор / Junior (1994) 1080р Ukr/Eng | Sub Eng igor911  1 / 0   7.27 GB   2013-07-14 02:24 
Ваш часовий пояс: GMT + 2 Години

Нова тема   Відповісти