Паранормальне явище: Фатальна мітка / Paranormal Activity: The Marked Ones (2014) 720p Ukr/Eng | Sub Ukr/Eng

Нові коментарі

Нова тема   Відповісти
Автор Повідомлення
staf777 
Відео Гуртом - підтримка та поширення
Відео Гуртом - підтримка та поширення


З нами з: 16.11.16
Востаннє: 11.09.17
Повідомлень: 522

2017-01-30 13:49  
Паранормальне явище: Фатальна мітка / Paranormal Activity: The Marked Ones (2014) 720p Ukr/Eng | Sub Ukr/Eng

Ще постери




Жанр: жахи
Країна: США



Кінокомпанія: Paramount Pictures, Blumhouse Productions, Room 101
Режисер: Крістофер Б. Лендон / Christopher B. Landon
Актори: Моллі Ефраїм, Крістал Сантос, Річард Кебрал, Ендрю Джейкобс, Хорхе Діаз, Воліс Бартон та інші

Сюжет:
Потойбічна сила, яка тероризувала героїв попередніх серій, знову вирвалася на свободу в пошуках нових жертв...


Тривалість: 01:24:12
Якість: 720p
Відео:
кодек:
розмір кадру: 1280x720
бітрейт: 10,9 Mб/с

Аудіо # 1:
мова: українська
переклад: професійний дубльований
кодек: 5.1
бітрейт: 640 кб/с

Аудіо # 2:
мова: англійська
переклад: оригінал
кодек: 5.1
бітрейт: 1509 кб/с

Субтитри # 1:
мова: українська
тип: програмні (м'які)
формат: *.srt

Субтитри # 2:
мова: англійська
тип: програмні (м'які)
формат: *.srt
Info
General
Unique ID : 187579022005010199465819244294287793328 (0x8D1E67D196EA31BAA9118863C64E1CB0)
Complete name : P:\HDClub\Paranormal Activity The Marked Ones (2014) [Ukr,Eng sub.Ukr,Eng] 720p [Hurtom].
Format :
Format version : Version 4 / Version 2
File size : 7.69 GiB
Duration : 1 h 24 min
Overall bit rate : 13.1 Mb/s
Movie name : Paranormal Activity: The Marked Ones (2014) [Ukr,Eng sub.Ukr,Eng] 720p [Hurtom]
Encoded date : UTC 2017-01-30 10:26:48
Writing application : mkvmerge v9.8.0 ('Kuglblids') 64bit
Writing library : libebml v1.3.4 + libmatroska v1.4.5

Video
ID : 1
Format : AVC
Format/Info : Advanced Video Codec
Format profile : [email protected]
Format settings, CABAC : Yes
Format settings, ReFrames : 9 frames
Codec ID : V_MPEG4/ISO/AVC
Duration : 1 h 24 min
Bit rate : 10.9 Mb/s
Width : 1 280 pixels
Height : 720 pixels
Display aspect ratio : 16:9
Frame rate mode : Constant
Frame rate : 23.976 (24000/1001) FPS
Color space : YUV
Chroma subsampling : 4:2:0
Bit depth : 8 bits
Scan type : Progressive
Bits/(Pixel*Frame) : 0.494
Stream size : 6.43 GiB (84%)
Writing library : core 125 r2200 999b753
Encoding settings : cabac=1 / ref=9 / deblock=1:-3:-3 / analyse=0x3:0x133 / me=umh / subme=11 / psy=1 / psy_rd=1.05:0.00 / mixed_ref=1 / me_range=48 / chroma_me=1 / trellis=2 / 8x8dct=1 / cqm=0 / deadzone=21,11 / fast_pskip=0 / chroma_qp_offset=-2 / threads=12 / lookahead_threads=2 / sliced_threads=0 / nr=0 / decimate=1 / interlaced=0 / bluray_compat=0 / constrained_intra=0 / bframes=9 / b_pyramid=2 / b_adapt=2 / b_bias=0 / direct=3 / weightb=1 / open_gop=0 / weightp=2 / keyint=250 / keyint_min=23 / scenecut=40 / intra_refresh=0 / rc_lookahead=40 / rc=crf / mbtree=0 / crf=16.5 / qcomp=0.60 / qpmin=0 / qpmax=69 / qpstep=4 / vbv_maxrate=62500 / vbv_bufsize=78125 / crf_max=0.0 / nal_hrd=none / ip_ratio=1.40 / pb_ratio=1.30 / aq=1:0.80
Language : English
Default : Yes
Forced : No

Audio #1
ID : 2
Format : AC-3
Format/Info : Audio Coding 3
Mode extension : CM (complete main)
Format settings, Endianness : Big
Codec ID : A_AC3
Duration : 1 h 24 min
Bit rate mode : Constant
Bit rate : 640 kb/s
Channel(s) : 6 channels
Channel positions : Front: L C R, Side: L R, LFE
Sampling rate : 48.0 kHz
Frame rate : 31.250 FPS (1536 spf)
Bit depth : 16 bits
Compression mode : Lossy
Stream size : 385 MiB (5%)
Title : |Дубляж, BluRay CEE|
Language : Ukrainian
Default : Yes
Forced : Yes

Audio #2
ID : 3
Format :
Format/Info : Digital Theater Systems
Mode : 16
Format settings, Endianness : Big
Codec ID : A_DTS
Duration : 1 h 24 min
Bit rate mode : Constant
Bit rate : 1 509 kb/s
Channel(s) : 6 channels
Channel positions : Front: L C R, Side: L R, LFE
Sampling rate : 48.0 kHz
Frame rate : 93.750 FPS (512 spf)
Bit depth : 24 bits
Compression mode : Lossy
Stream size : 909 MiB (12%)
Language : English
Default : No
Forced : No

Text #1
ID : 4
Format : UTF-8
Codec ID : S_TEXT/UTF8
Codec ID/Info : UTF-8 Plain Text
Duration : 1 h 23 min
Bit rate : 89 b/s
Count of elements : 1217
Stream size : 54.9 KiB (0%)
Language : Ukrainian
Default : No
Forced : No

Text #2
ID : 5
Format : UTF-8
Codec ID : S_TEXT/UTF8
Codec ID/Info : UTF-8 Plain Text
Duration : 1 h 17 min
Bit rate : 62 b/s
Count of elements : 1212
Stream size : 35.5 KiB (0%)
Language : English
Default : No
Forced : No

Menu
00:00:00.000 : :00:00:00.000
00:05:52.477 : :00:05:52.477
00:10:06.564 : :00:10:06.564
00:15:28.928 : :00:15:28.928
00:19:12.818 : :00:19:12.818
00:24:39.520 : :00:24:39.520
00:30:02.926 : :00:30:02.926
00:38:23.134 : :00:38:23.134
00:43:24.811 : :00:43:24.811
00:49:07.820 : :00:49:07.820
00:55:41.213 : :00:55:41.213
01:00:48.603 : :01:00:48.603
01:06:34.449 : :01:06:34.449
01:18:28.370 : :01:18:28.370
Скріншоти



Джерело: &
Подяка за постер hellforces
Особиста оцінка: 0 - не дивився


Бронзовий реліз (на рейтинг впливає 75% завантаженого)
 Трекер:    Зареєстрований   

Завантажити / скачати фільм українською



відео для новачків



 Зареєстрований:   2017-01-30 14:44
 Розмір:   7.69 GB 
 Оцінка фільму:   10/10 (Голосів: 6)
   
casper101 
Поважний учасник


З нами з: 03.12.09
Востаннє: 19.10.17
Повідомлень: 232

2017-01-30 15:16  
круто!!!
Ваш часовий пояс: GMT + 2 Години

Нова тема   Відповісти