Зачаровані Місяцем / Moonstruck (1987) Remux 1080p Ukr/Eng | Sub Ukr/Eng

Нові коментарі

Нова тема   Відповісти
Автор Повідомлення
staf777 
Відео Гуртом - підтримка та поширення
Відео Гуртом - підтримка та поширення


З нами з: 16.11.16
Востаннє: 19.01.20
Повідомлень: 3331

2017-01-29 20:13  
Зачаровані Місяцем / Moonstruck (1987) Remux 1080p Ukr/Eng | Sub Ukr/Eng


Зачаровані Місяцем / Moonstruck (1987) Remux 1080p Ukr/Eng | Sub Ukr/Eng

«Life. Family. Love.»


Жанр: комедія, романтичний, драма
Країна: США


Кіностудія / кінокомпанія: Metro-Goldwyn-Mayer (MGM), Star Partners
Режисер: Норман Джевісон (Norman Jewison)
Композитор: Дік Гаймен (Dick Hyman)
Актори: Ніколас Кейдж (Nicolas Cage), Шер (Cher), Вінсент Ґарденія (Vincent Gardenia), Олімпія Дукакіс (Olympia Dukakis), Денні Аєло (Danny Aiello), Джулі Бовасо (Julie Bovasso), Джон Магоні (John Mahoney), Луїс Ґас (Louis Guss) та інші.

Сюжет:
Коли над містом сходить повний місяць, дивні речі відбуваються з поважною італійською родиною в якому донька напередодні свого другого заміжжя раптом розуміє, що кохає іншого, батько невірний своїй дружині, а до останньою залицяється сторонній чоловік...
Перемоги, номінації, цікаві факти

Приз Національної ради оглядачів за другорядна жіночу роль, за підсумками 1988 року - «Давид» Донателло» в Італії найкращій іноземній акторці, «Срібна стрічка» в Італії найкращій іноземній акторці (Шер - порівну зі Стефан Одран / Stéphane Audran, яка зіграла у стрічці «Бенкет Бабети» / Babettes gæstebud).

Британська академія, 1989 рік
Переможець (1):
Найкраща жіноча роль другого плану (Олімпія Дукакіс)

Номінації (3):
Найкраща жіноча роль (Шер)
Найкращий оригінальний сценарій
Найкращий саундтрек

Оскар, 1988 рік
Переможець (3):
Найкраща жіноча роль (Шер)
Найкраща жіноча роль другого плану (Олімпія Дукакіс)
Найкращий сценарій

Номінації (3):
Найкращий фільм
Найкраща чоловіча роль другого плану (Вінсент Ґарденія)
Найкращий режисер (Норман Джевісон)

Золотий глобус, 1988 рік
Переможець (2):
Найкраща жіноча роль (комедія або мюзикл) (Шер)
Найкраща жіноча роль другого плану (Олімпія Дукакіс)

Номінації (3):
Найкращий фільм (комедія або мюзикл)
Найкраща чоловіча роль (комедія або мюзикл) (Ніколас Кейдж)
Найкращий сценарій

Берлінський кінофестиваль, 1988 рік
Переможець (1):
Срібний Ведмідь за найкращу режисерську роботу (Норман Джевісон)

Номінації (1):
Золотий Ведмідь

Цікавий факт про фільм

• Олімпія Дукакіс всього на 15 років старша за свою екранну доньку Шер.
Тривалість: 01:41:55
Якість: Remux 1080p
Відео:
кодек:
розмір кадру: 1920x1080
бітрейт: 35,6 Mб/с

Аудіо # 1:
мова: українська
переклад: двоголосий закадровий Новий Канал | усі чоловічі ролі озвучив Михайло Жонін
кодек: -HD MA 5.1
бітрейт: 3840 кб/с (доріжка отримана шляхом накладання чистих голосів. HDClub)

Аудіо # 2:
мова: українська
переклад: двоголосий закадровий Новий Канал | усі чоловічі ролі озвучив Михайло Жонін
кодек: 5.1
бітрейт: 384 кб/с

Аудіо # 3:
мова: англійська
переклад: оригінал
кодек: -HD MA 5.1
бітрейт: 3840 кб/с

Субтитри # 1:
мова: українська
тип: програмні (м'які)
формат: *.srt
джерело субтитрів: DVD, синхронізація і редагування: w2958l

Субтитри # 2:
мова: англійська
тип: пререндерні
формат: PGS
Info
General
Unique ID : 17663302013930108730808822832140613601 (0xD49D406A787D5AF74ABCB82049F77E1)
Complete name : P:\HD українською » Фільми в HD\Комедія\Moonstruck (1987) Remux 1080p [UKR][ENG][Hurtom].
Format :
Format version : Version 4 / Version 2
File size : 31.0 GiB
Duration : 1 h 41 min
Overall bit rate mode : Variable
Overall bit rate : 43.5 Mb/s
Movie name : Moonstruck (1987) Remux 1080p [UKR][ENG][Hurtom]
Encoded date : UTC 2018-12-04 17:30:06
Writing application : v24.0.0 ('Beyond The Pale') 64-bit
Writing library : libebml v1.3.6 + v1.4.9
Cover : Yes
Attachments : cover.jpg

Video
ID : 1
Format : AVC
Format/Info : Advanced Video Codec
Format profile : [email protected]
Format settings : CABAC / 4 Ref Frames
Format settings, CABAC : Yes
Format settings, ReFrames : 4 frames
Codec ID : V_MPEG4/ISO/AVC
Duration : 1 h 41 min
Bit rate mode : Variable
Bit rate : 35.6 Mb/s
Maximum bit rate : 36.0 Mb/s
Width : 1 920 pixels
Height : 1 080 pixels
Display aspect ratio : 16:9
Frame rate mode : Constant
Frame rate : 23.976 (24000/1001) FPS
Color space : YUV
Chroma subsampling : 4:2:0
Bit depth : 8 bits
Scan type : Progressive
Bits/(Pixel*Frame) : 0.715
Stream size : 25.3 GiB (82%)
Default : Yes
Forced : No
Color range : Limited
Color primaries : BT.709
Transfer characteristics : BT.709
Matrix coefficients : BT.709

Audio #1
ID : 2
Format :
Format/Info : Digital Theater Systems
Format profile : MA / Core
Codec ID : A_DTS
Duration : 1 h 41 min
Bit rate mode : Variable / Constant
Bit rate : 3 840 kb/s / 1 509 kb/s
Channel(s) : 6 channels
Channel positions : Front: L C R, Side: L R, LFE
Sampling rate : 48.0 kHz
Frame rate : 93.750 FPS (512 SPF)
Bit depth : 24 bits
Compression mode : Lossless / Lossy
Stream size : 2.68 GiB (9%)
Language : Ukrainian
Default : Yes
Forced : Yes

Audio #2
ID : 3
Format : AC-3
Format/Info : Audio Coding 3
Codec ID : A_AC3
Duration : 1 h 41 min
Bit rate mode : Constant
Bit rate : 384 kb/s
Channel(s) : 6 channels
Channel positions : Front: L C R, Side: L R, LFE
Sampling rate : 48.0 kHz
Frame rate : 31.250 FPS (1536 SPF)
Bit depth : 16 bits
Compression mode : Lossy
Delay relative to video : 1 s 500 ms
Stream size : 280 MiB (1%)
Title : [Ukr-Mvo-H]
Language : Ukrainian
Service kind : Complete Main
Default : No
Forced : No

Audio #3
ID : 4
Format :
Format/Info : Digital Theater Systems
Format profile : MA / Core
Codec ID : A_DTS
Duration : 1 h 41 min
Bit rate mode : Variable / Constant
Bit rate : 3 840 kb/s / 1 509 kb/s
Channel(s) : 6 channels
Channel positions : Front: L C R, Side: L R, LFE
Sampling rate : 48.0 kHz
Frame rate : 93.750 FPS (512 SPF)
Bit depth : 24 bits
Compression mode : Lossless / Lossy
Stream size : 2.68 GiB (9%)
Language : English
Default : No
Forced : No

Text #1
ID : 5
Format : UTF-8
Codec ID : S_TEXT/UTF8
Codec ID/Info : UTF-8 Plain Text
Duration : 1 h 37 min
Bit rate : 90 b/s
Count of elements : 1181
Stream size : 64.5 KiB (0%)
Language : Ukrainian
Default : No
Forced : No

Text #2
ID : 6
Format : PGS
Muxing mode : zlib
Codec ID : S_HDMV/PGS
Codec ID/Info : Picture based subtitle format used on BDs/HD-DVDs
Duration : 1 h 38 min
Bit rate : 39.7 kb/s
Count of elements : 2724
Stream size : 28.0 MiB (0%)
Language : English
Default : No
Forced : No
Скріншоти




Джерело: &
Особиста оцінка: 0 - не дивився
ЗАЛИШАЙТЕСЬ ЯКОМОГА ДОВШЕ НА РОЗДАЧІ!

СКАЧАВ САМ - ДАЙ СКАЧАТИ ІНШИМ



Золотий реліз (завантажене не впливає на рейтинг)
 Трекер:    Зареєстрований   

Завантажити / скачати фільм українською



відео для новачків



 Зареєстрований:   2018-12-04 20:00
 Розмір:   30.96 GB 
 Оцінка фільму:   6.6/10 (Голосів: 8)
   
Інші релізи
staf777 
Відео Гуртом - підтримка та поширення
Відео Гуртом - підтримка та поширення


З нами з: 16.11.16
Востаннє: 19.01.20
Повідомлень: 3331

2018-12-04 20:01  
Додав доріжку 5.1
Ваш часовий пояс: GMT + 2 Години

Нова тема   Відповісти