Чарівний меч: У пошуках Камелота / The Magic Sword: Quest for Camelot (1998) 1080p Ukr/Eng | Sub Eng

Нові коментарі

Нова тема   Відповісти
Автор Повідомлення
Babamin 
Частий відвідувач


З нами з: 29.12.15
Востаннє: 20.08.17
Повідомлень: 26

2017-01-29 09:57  
Чарівний меч: У пошуках Камелота / The Magic Sword: Quest for Camelot (1998) 1080p Ukr/Eng | Sub Eng



Золотий глобус 1999 рік - найкраща пісня "The Prayer"
(Селін Діон / Céline Dion)

Жанр: Анімація, мультфільм, мюзикл, фентезі, драма, комедія, пригодницький, сімейний
Країна: США



Кінокомпанія: Warner Bros. Family Intertainment
Режисер: Фредерік Ду Чау
Актори: Джессалін Гілсіг / Jessalyn Gilsig, Андреа Корр / Andrea Corr, Карл Елвіс / Cary Elwes, Браян Вайт / Bryan White, Ґері Олдмен / Gary Oldman, Ерік Ідл / Eric Idle, Селін Діон / Céline Dion, Пірс Броснан / Pierce Brosnan та інші

Сюжет:
Все те ж царство Камелот, все той же король Артур, все той же легендарний меч Екскалібур, який викрадає злий лицар Рубер. Хоробра дівчина на ім'я Кейлі відправляється на пошуки меча, її веде сліпий юнак Гаррет.
Вони зустрічаються з прикольним створінням - двоголовим драконом на ім'я Девон і Корнуол. Під час їх чарівноїї та музичної подорожі Кейлі і Гаррет відкривають для себе нескінченну силу дружби і відваги.

Синопсис від Merdiff'а:
Лайонел, батько дівчинки Кайлі, загинув, захищаючи короля Артура від злого і жадібного лицаря Рубера, який волів заволодіти всіма землями, мечом Екскалібур і лицарським замком Камелот. Дівча виросло, мріючи стати лицарем, як її батько. Чарівний грифон (фантастичний монстр з тілом лева, крилами і головою орла) викрав меч короля Артура для Рубера, але випустив його над Заповітним лісом після нападу сокола з срібними крилами. Рубер захопив Джуліанну, мати Кайлі, щоб проникнути в Камелот. Джуліанна послала Кайлі попередити короля Артура, а хоробра дівчина попрямувала у Заповітний ліс, щоб знайти меч і повернути його королю. Там вона зустріла сліпого юнака, який раніше служив у Камелоті на конюшні, і, спасаючи її від пожежі, осліп. Разом вони шукають меч, знайомляться із кумедним двохголовим драконом і перемагають злого Рубера

«Devon & Cornwall: A two-headed dragon with an identity crisis»


Тривалість: 01:26:02
Якість: 1080p (Amazon)

Відео:
кодек:
розмір кадру: 1920 х 1080
бітрейт: 10000 кб/с

Аудіо # 1:
мова: українська
переклад: двоголосий закадровий
(Олена Узлюк та Юрій Коваленко)
кодек: 5.1
бітрейт: 384 кб/с

Аудіо # 2:
мова: українська
переклад: двоголосий закадровий
(Олена Узлюк та Юрій Коваленко)
кодек: 2.0
бітрейт: 192 кб/с

Аудіо # 3:
мова: англійська
переклад: оригінал
кодек: 5.1
бітрейт: 384 кб/с

Субтитри:
мова: англійська
тип: програмні (м'які)
формат: *.srt
Info:
General
Complete name : Quest.for.Camelot.(1998)..1080p.Ukr.Eng.Sub.
Format :
Format version : Version 4 / Version 2
File size : 6.55 GiB
Duration : 1h 26mn
Overall bit rate : 10.9 Mbps
Movie name : Quest for Camelot (1998) 1080p_Ukr_Eng_Sub [Amazon]
Encoded date : UTC 2017-01-28 20:47:15
Writing library : libebml v1.3.0 + libmatroska v1.4.1
DURATION : 01:25:55.936000000

Video
ID : 1
Format : AVC
Format/Info : Advanced Video Codec
Format profile : [email protected]
Format settings, CABAC : Yes
Format settings, ReFrames : 4 frames
Codec ID : V_MPEG4/ISO/AVC
Duration : 1h 26mn
Bit rate mode : Constant
Bit rate : 10 000 Kbps
Width : 1 920 pixels
Height : 1 080 pixels
Display aspect ratio : 16:9
Frame rate mode : Constant
Frame rate : 23.976 fps
Color space : YUV
Chroma subsampling : 4:2:0
Bit depth : 8 bits
Scan type : Progressive
Bits/(Pixel*Frame) : 0.201
Stream size : 5.84 GiB (89%)
Title : Quest for Camelot (1998) 1080p_Ukr_Eng_Sub
Language : English
Default : Yes
Forced : No
Color range : Limited
Color primaries : BT.709
Transfer characteristics : BT.709
Matrix coefficients : BT.709

Audio #1
ID : 2
Format : AC-3
Format/Info : Audio Coding 3
Mode extension : CM (complete main)
Format settings, Endianness : Big
Codec ID : A_AC3
Duration : 1h 26mn
Bit rate mode : Constant
Bit rate : 384 Kbps
Channel(s) : 6 channels
Channel positions : Front: L C R, Side: L R, LFE
Sampling rate : 48.0 KHz
Compression mode : Lossy
Stream size : 236 MiB (4%)
Title : [1+1] [email protected]
Language : Ukrainian
Default : Yes
Forced : No

Audio #2
ID : 3
Format : AC-3
Format/Info : Audio Coding 3
Mode extension : CM (complete main)
Format settings, Endianness : Big
Codec ID : A_AC3
Duration : 1h 26mn
Bit rate mode : Constant
Bit rate : 192 Kbps
Channel(s) : 2 channels
Channel positions : Front: L R
Sampling rate : 48.0 KHz
Compression mode : Lossy
Stream size : 118 MiB (2%)
Title : [1+1] [email protected]
Language : Ukrainian
Default : No
Forced : No

Audio #3
ID : 4
Format : AC-3
Format/Info : Audio Coding 3
Mode extension : CM (complete main)
Format settings, Endianness : Big
Codec ID : A_AC3
Duration : 1h 26mn
Bit rate mode : Constant
Bit rate : 384 Kbps
Channel(s) : 6 channels
Channel positions : Front: L C R, Side: L R, LFE
Sampling rate : 48.0 KHz
Compression mode : Lossy
Stream size : 236 MiB (4%)
Title : Original
Language : English
Default : No
Forced : No

Text
ID : 5
Format : UTF-8
Codec ID : S_TEXT/UTF8
Codec ID/Info : UTF-8 Plain Text
Title : Full
Language : English
Default : No
Forced : No

Menu
00:00:00.000 : en:The Camelot Saga
00:04:13.127 : en:"United We Stand"
00:06:34.602 : en:Ruber Rebels
00:08:06.944 : en:"On My Father's Wings"
00:12:37.047 : en:Griffin Attacks
00:13:50.746 : en:Excalibur Lost
00:14:54.935 : en:Where's the Glory?
00:16:48.298 : en:Invaded ("Ruber")
00:21:42.217 : en:"The Prayer"
00:24:55.410 : en:Forbidden Forest
00:26:00.350 : en:Rescued by Garrett
00:27:05.582 : en:"I Stand All Alone"
00:31:36.352 : en:Searchers
00:33:30.299 : en:Dragon Country
00:34:57.553 : en:Devon and Cornwall
00:36:33.274 : en:Fiery Attack
00:38:26.971 : en:"If I Didn't Have You"
00:42:17.660 : en:Join Us, Find Them
00:44:07.436 : en:Good as Any Knight
00:46:12.478 : en:Face to Face
00:48:06.049 : en:Close Call
00:50:04.251 : en:"Looking Through Your Eyes"
00:54:06.618 : en:The Ogre; a Clue
00:55:55.268 : en:Wake-Up Call
00:57:52.802 : en:Slip-Sliding Away
00:59:31.192 : en:Where He Belongs
01:01:26.808 : en:"I Stand All Alone" (Reprise)
01:02:21.612 : en:In the Wrong Hands
01:06:29.860 : en:Inside Camelot
01:07:38.054 : en:Under Siege
01:09:42.887 : en:Hayride to Castle
01:11:06.387 : en:The Griffin Burned
01:11:58.981 : en:No False King
01:12:50.866 : en:His Unlucky Day
01:14:52.738 : en:Just Knighted
01:16:48.562 : en:End Credits
Скріншоти:




Подяка пану Merdiff за доріжку 5.1 та пану romkomp за доріжку 2.0
Зведення звуку: Babamin


Срібний реліз (на рейтинг впливає 50% завантаженого)
 Трекер:    Зареєстрований   

Завантажити / скачати мультфільм українською



відео для новачків



 Зареєстрований:   2017-01-29 09:57
 Розмір:   6.55 GB 
 Оцінка мультфільму:   10/10 (Голосів: 3)
   
bogdan8249 
Відео Гуртом - фільмокрай
Відео Гуртом - фільмокрай


З нами з: 09.08.08
Востаннє: 20.08.17
Повідомлень: 1157

2017-01-29 17:15  
Однакові переклади?
igor911 
Відео Гуртом
Відео Гуртом


З нами з: 18.01.08
Востаннє: 21.08.17
Повідомлень: 7309

2017-01-29 17:30  
bogdan8249, так, різниця лише в к-ті каналів в псевдо-2.0 та псевдо-5.1 доріжках.
bogdan8249 
Відео Гуртом - фільмокрай
Відео Гуртом - фільмокрай


З нами з: 09.08.08
Востаннє: 20.08.17
Повідомлень: 1157

2017-01-30 02:02  
igor911
Якось, раніше, на таке не натрапляв. Таке, як я зрозумів, лише в HD-релізах роблять?

igor911 
Відео Гуртом
Відео Гуртом


З нами з: 18.01.08
Востаннє: 21.08.17
Повідомлень: 7309

2017-01-30 09:11  
bogdan8249, не тільки в HD, раніше бавились тим псевдо-5.1, поки не зрозуміли, що якісно то зробити важко, довго і марудно, тому пізніше стали робити 2.0.
Ваш часовий пояс: GMT + 2 Години

Нова тема   Відповісти