Смерть їй личить (Смерть їй пасує) / Death Becomes Her (1992) 1080p Ukr/Eng | Sub Eng

Нові коментарі

Нова тема   Відповісти
Останній раз роздавалося staf777 (2017-08-16)
Автор Повідомлення
staf777 
Відео Гуртом - підтримка та поширення
Відео Гуртом - підтримка та поширення


З нами з: 16.11.16
Востаннє: 16.08.17
Повідомлень: 522

2017-01-29 03:51  
Смерть їй личить / Смерть їй пасує / Death Becomes Her (1992) 1080p Ukr/Eng | Sub Eng

Смерть їй личить (Смерть їй пасує) / Death Becomes Her (1992) 1080p Ukr/Eng | Sub Eng

Український постер

Смерть їй личить (Смерть їй пасує) / Death Becomes Her (1992) 1080p Ukr/Eng | Sub Eng

Жанр: комедія, фентезі
Країна: США



Кінокомпанія: Universal Pictures
Режисер: Роберт Земекіс (Robert Zemeckis)
Актори: Меріл Стріп (Meryl Streep), Брюс Вілліс (Bruce Willis), Ґолді Хоун (Goldie Hawn), Ізабелла Роззелліні (Isabella Rossellini), Ненсі Фіш (Nancy Fish), Мішель Джонсон (Michelle Johnson) та інші.

Сюжет:
Маловiдома актриса Меделін Ештон (Стрiп) вiдбиває у своєї подруги (Хоун) нареченого, вiдомого хiрурга-косметолога Ернеста (Вiллiс). Однак ображена жiнка знаходить спосiб помститися: стає членом таємного товариства, яке вживає елiксир вiчної молодостi. Ставши коханкою Ернеста, вона планує вбити Меделін. Ситуацiя ще бiльше укладнюється, коли остання також починає вживати елiксир. Виявляється, що разом з вiчною юнiстю жiнки здобули безсмертя, i iх уже не можуть зупинити навiть смертельнi поранення... Непоганий зразок "чорної" комедii з чудовим акторським трiо. Фiльм отримав премiю "Оскар" за вражаючi спецефекти.


Тривалість: 01:43:19
Якість: 1080p
Відео:
кодек:
розмір кадру: 1920x1040
бітрейт: 18511 кб/с

Аудіо # 1:
мова: українська
переклад: багатоголосий закадровий
кодек: 2.0
бітрейт: 192 кб/с

Аудіо # 2:
мова: українська
переклад: двоголосий закадровий
кодек: 2.0
бітрейт: 192 кб/с

Аудіо # 3:
мова: англійська
переклад: оригінал
кодек: 5.1
бітрейт: 1509 кб/с

Субтитри:
мова: англійська
тип: програмні (м'які)
формат: *.srt
Info
General
Unique ID : 253157997004849099750921376257084898225 (0xBE7474EAE6209FAE9FEA12F04BDE3BB1)
Complete name : P:\HDClub\Death Becomes Her (1992) [2xUkr,Eng sub.Eng] 1080p [Hurtom].
Format :
Format version : Version 4 / Version 2
File size : 14.7 GiB
Duration : 1 h 43 min
Overall bit rate : 20.4 Mb/s
Movie name : Death Becomes Her (1992) [2xUkr,Eng sub.Eng] 1080p [Hurtom]
Encoded date : UTC 2017-01-30 09:24:23
Writing application : mkvmerge v9.8.0 ('Kuglblids') 64bit
Writing library : libebml v1.3.4 + libmatroska v1.4.5

Video
ID : 1
Format : AVC
Format/Info : Advanced Video Codec
Format profile : [email protected]
Format settings, CABAC : Yes
Format settings, ReFrames : 4 frames
Codec ID : V_MPEG4/ISO/AVC
Duration : 1 h 43 min
Bit rate : 18.5 Mb/s
Width : 1 920 pixels
Height : 1 040 pixels
Display aspect ratio : 1.85:1
Frame rate mode : Constant
Frame rate : 23.976 (24000/1001) FPS
Color space : YUV
Chroma subsampling : 4:2:0
Bit depth : 8 bits
Scan type : Progressive
Bits/(Pixel*Frame) : 0.387
Stream size : 13.4 GiB (91%)
Title : Death Becomes Her (1992) - Release for HDCLUB
Writing library : core 148 r2744kMod b97ae06
Encoding settings : cabac=1 / ref=4 / deblock=1:-3:-3 / analyse=0x3:0x133 / me=umh / subme=11 / psy=1 / fade_compensate=0.00 / psy_rd=1.00:0.10 / mixed_ref=1 / me_range=32 / chroma_me=1 / trellis=2 / 8x8dct=1 / cqm=0 / deadzone=21,11 / fast_pskip=0 / chroma_qp_offset=-3 / threads=12 / lookahead_threads=2 / sliced_threads=0 / nr=0 / decimate=1 / interlaced=0 / bluray_compat=0 / constrained_intra=0 / bframes=8 / b_pyramid=2 / b_adapt=2 / b_bias=0 / direct=3 / weightb=1 / open_gop=0 / weightp=2 / keyint=240 / keyint_min=23 / scenecut=40 / intra_refresh=0 / rc_lookahead=80 / rc=crf / mbtree=0 / crf=18.0000 / qcomp=0.60 / qpmin=0 / qpmax=69 / qpstep=4 / vbv_maxrate=62500 / vbv_bufsize=78125 / crf_max=0.0 / nal_hrd=none / filler=0 / ip_ratio=1.30 / pb_ratio=1.20 / aq=3:0.70
Language : English
Default : Yes
Forced : No

Audio #1
ID : 2
Format : AC-3
Format/Info : Audio Coding 3
Mode extension : CM (complete main)
Format settings, Endianness : Big
Codec ID : A_AC3
Duration : 1 h 43 min
Bit rate mode : Constant
Bit rate : 192 kb/s
Channel(s) : 2 channels
Channel positions : Front: L R
Sampling rate : 48.0 kHz
Frame rate : 31.250 FPS (1536 spf)
Bit depth : 16 bits
Compression mode : Lossy
Stream size : 142 MiB (1%)
Title : ТРК Україна
Language : Ukrainian
Default : Yes
Forced : Yes

Audio #2
ID : 3
Format : AC-3
Format/Info : Audio Coding 3
Mode extension : CM (complete main)
Format settings, Endianness : Big
Codec ID : A_AC3
Duration : 1 h 43 min
Bit rate mode : Constant
Bit rate : 192 kb/s
Channel(s) : 2 channels
Channel positions : Front: L R
Sampling rate : 48.0 kHz
Frame rate : 31.250 FPS (1536 spf)
Bit depth : 16 bits
Compression mode : Lossy
Stream size : 142 MiB (1%)
Title : Новий канал
Language : Ukrainian
Default : No
Forced : Yes

Audio #3
ID : 4
Format :
Format/Info : Digital Theater Systems
Mode : 16
Format settings, Endianness : Big
Codec ID : A_DTS
Duration : 1 h 43 min
Bit rate mode : Constant
Bit rate : 1 509 kb/s
Channel(s) : 6 channels
Channel positions : Front: L C R, Side: L R, LFE
Sampling rate : 48.0 kHz
Frame rate : 93.750 FPS (512 spf)
Bit depth : 24 bits
Compression mode : Lossy
Stream size : 1.09 GiB (7%)
Title : English
Language : English
Default : No
Forced : No

Text
ID : 5
Format : UTF-8
Codec ID : S_TEXT/UTF8
Codec ID/Info : UTF-8 Plain Text
Duration : 1 h 36 min
Bit rate : 37 b/s
Count of elements : 802
Stream size : 26.5 KiB (0%)
Title : English
Language : English
Default : No
Forced : No

Menu
00:00:00.000 : :Chapter 01
00:13:10.788 : :Chapter 02
00:20:40.864 : :Chapter 03
00:26:47.230 : :Chapter 04
00:35:22.119 : :Chapter 05
00:42:07.148 : :Chapter 06
00:51:01.682 : :Chapter 07
00:55:47.969 : :Chapter 08
01:02:38.378 : :Chapter 09
01:09:56.192 : :Chapter 10
01:17:08.247 : :Chapter 11
01:32:54.569 : :Chapter 12
Скріншоти




Джерело: &
Подяки:
Пану Merdiff за надану сиру доріжку від ТРК "Україна", та пану weber, за надану сиру доріжку від "Нового каналу", robotron005 за зведення обох доріжок, Musketeer за українізований постер


Срібний реліз (на рейтинг впливає 50% завантаженого)
 Трекер:    Зареєстрований   

Завантажити / скачати фільм українською



відео для новачків



 Зареєстрований:   2017-01-30 13:50
 Розмір:   14.73 GB 
 Оцінка фільму:   9.7/10 (Голосів: 7)
   
Ваш часовий пояс: GMT + 2 Години

Нова тема   Відповісти