Лють / Man on Fire (1987) 720p Ukr/Eng | Sub Eng

Нові коментарі

Нова тема   Відповісти
Останній раз роздавалося staf777 (2017-10-20)
Автор Повідомлення
staf777 
Відео Гуртом - підтримка та поширення
Відео Гуртом - підтримка та поширення


З нами з: 16.11.16
Востаннє: 20.10.17
Повідомлень: 522

2017-01-29 01:24  
Лють / Man on Fire (1987) 720p Ukr/Eng | Sub Eng

Лють / Man on Fire (1987) 720p Ukr/Eng | Sub Eng


Жанр: драма, трилер, екшн
Країна: Франція, Італія



Кінокомпанія: 7 Films Cinéma, Cima Produzioni, France 3 Cinéma, Regency
Режисер: Елі Шуракі
Актори: Скотт Гленн, Джейд Мелл, Джо Пеші, Брук Адамс, Джонатан Прайс, Денні Айелло

Сюжет:
Колишнього агента ЦРУ Крізі наймають охороняти родину впливового італійського бізнесмена, він береться за справу, не знаючи, що охороняти доведеться переважно дванадцятирічну дівчину. Юна Сем і її суворий охоронець стають кращими друзями, однак раптові і страшні події показують, що дівчинці потрібно не тільки його товариство а й професійні навички - невідома банда викрадає Сем, вимагаючи за її життя мільйон доларів.
Не довіряючи поліції, Крізі поодинці відправляється на пошуки лиходіїв.
У Крізі немає родини, Сем йому не донька, та він віддасть життя за її порятунок.


Тривалість: 01:28:14
Якість: 720p
Відео:
кодек:
розмір кадру: 1274x720
бітрейт: 10213 кб/с

Аудіо # 1:
мова: українська
переклад: багатоголосий закадровий
кодек: 2.0
бітрейт: 192 кб/с

Аудіо # 2:
мова: англійська
переклад: оригінал
кодек: FLAC 2.0
бітрейт: 574 кб/с

Субтитри:
мова: англійська
тип: програмні (м'які)
формат: *.srt
Info
General
Unique ID : 200495250456014914071519258580318009819 (0x96D5FB0C46A31E2DBA6D244A4C69B9DB)
Complete name : H:\HDClub\Man on Fire (1987) [Ukr,Eng sub.Eng] 720p [Hurtom].
Format :
Format version : Version 4 / Version 2
File size : 7.09 GiB
Duration : 1 h 32 min
Overall bit rate mode : Variable
Overall bit rate : 11.0 Mb/s
Movie name : Man on Fire (1987) [Ukr,Eng sub.Eng] 720p [Hurtom]
Encoded date : UTC 2017-01-29 09:03:45
Writing application : mkvmerge v9.8.0 ('Kuglblids') 64bit
Writing library : libebml v1.3.4 + libmatroska v1.4.5
Cover : Yes
Attachments : cover.jpg

Video
ID : 1
Format : AVC
Format/Info : Advanced Video Codec
Format profile : [email protected]
Format settings, CABAC : Yes
Format settings, ReFrames : 9 frames
Codec ID : V_MPEG4/ISO/AVC
Duration : 1 h 32 min
Bit rate : 10.2 Mb/s
Width : 1 274 pixels
Height : 720 pixels
Display aspect ratio : 16:9
Frame rate mode : Constant
Frame rate : 23.976 (23976/1000) FPS
Color space : YUV
Chroma subsampling : 4:2:0
Bit depth : 8 bits
Scan type : Progressive
Bits/(Pixel*Frame) : 0.464
Stream size : 6.58 GiB (93%)
Title : Man on Fire (1987) 720p[Hurtom]
Writing library : core 148 r2744+55 950084e t_mod_Custom [[email protected] X86_64]
Encoding settings : cabac=1 / ref=9 / deblock=1:-3:-3 / analyse=0x3:0x133 / me=umh / subme=10 / psy=1 / fade_compensate=0.00 / psy_rd=1.00:0.05 / mixed_ref=1 / me_range=32 / chroma_me=1 / trellis=2 / 8x8dct=1 / cqm=0 / deadzone=21,11 / fast_pskip=0 / chroma_qp_offset=-3 / threads=6 / lookahead_threads=1 / sliced_threads=0 / nr=0 / decimate=1 / interlaced=0 / bluray_compat=0 / constrained_intra=0 / fgo=0 / bframes=8 / b_pyramid=2 / b_adapt=2 / b_bias=0 / direct=3 / weightb=1 / open_gop=0 / weightp=2 / keyint=250 / keyint_min=23 / scenecut=40 / intra_refresh=0 / rc_lookahead=60 / rc=crf / mbtree=0 / crf=17.5000 / qcomp=0.60 / qpmin=0:0:0 / qpmax=69:69:69 / qpstep=4 / vbv_maxrate=62500 / vbv_bufsize=78125 / crf_max=0.0 / nal_hrd=none / filler=0 / ip_ratio=1.40 / pb_ratio=1.30 / aq=1:0.65 / aq-sensitivity=10.00 / aq-factor=1.00:1.00:1.00 / aq2=1:0.60 / aq2-sensitivity=15.00 / aq2-factor=1.00:1.00:1.00 / aq3=1:[0.55:0.55]:[0.55:0.55]:[0.55:0.55]:[0.55:0.55] / aq3-sensitivity=10.00 / aq3-factor=[1.00:1.00]:[1.00:1.00]:[1.00:1.00] / aq3-boundary=192:64:24
Language : English
Default : Yes
Forced : No
Color range : Limited
Color primaries : BT.709
Transfer characteristics : BT.709
Matrix coefficients : BT.709

Audio #1
ID : 2
Format : AC-3
Format/Info : Audio Coding 3
Mode extension : CM (complete main)
Format settings, Endianness : Big
Codec ID : A_AC3
Duration : 1 h 32 min
Bit rate mode : Constant
Bit rate : 224 kb/s
Channel(s) : 2 channels
Channel positions : Front: L R
Sampling rate : 48.0 kHz
Frame rate : 31.250 FPS (1536 spf)
Bit depth : 16 bits
Compression mode : Lossy
Stream size : 148 MiB (2%)
Title : [UA-MVO, ICTV]
Language : Ukrainian
Default : Yes
Forced : Yes

Audio #2
ID : 3
Format : FLAC
Format/Info : Free Lossless Audio Codec
Codec ID : A_FLAC
Duration : 1 h 32 min
Bit rate mode : Variable
Bit rate : 574 kb/s
Channel(s) : 2 channels
Channel positions : Front: L R
Sampling rate : 48.0 kHz
Frame rate : 11.719 FPS (4096 spf)
Bit depth : 16 bits
Stream size : 379 MiB (5%)
Writing library : libFLAC 1.2.1 (UTC 2007-09-17)
Language : English
Default : No
Forced : No

Text
ID : 4
Format : UTF-8
Codec ID : S_TEXT/UTF8
Codec ID/Info : UTF-8 Plain Text
Duration : 1 h 25 min
Bit rate : 39 b/s
Count of elements : 914
Stream size : 24.6 KiB (0%)
Title : SDH
Language : English
Default : No
Forced : No

Menu
00:00:00.000 : en:00:00:00.000
00:08:19.499 : en:00:08:19.499
00:18:20.433 : en:00:18:20.433
00:28:39.551 : en:00:28:39.551
00:43:02.330 : en:00:43:02.330
00:54:15.085 : en:00:54:15.085
01:05:31.469 : en:01:05:31.469
01:16:56.403 : en:01:16:56.403
Скріншоти


За українську доріжку та англійські субтитри подяка пану Spiellberg
Джерело: &
Особиста оцінка: 8 - мені сподобалося
Лють / Man on Fire (1987) 720p Ukr/Eng | Sub Eng


Срібний реліз (на рейтинг впливає 50% завантаженого)
 Трекер:    Зареєстрований   

Завантажити / скачати фільм українською



відео для новачків



 Зареєстрований:   2017-01-29 12:29
 Розмір:   7.09 GB 
 Оцінка фільму:   10/10 (Голосів: 1)
   
Інші релізи
   Лють / Man on Fire (1987) NemoInFire  2 / 0   1.5 GB   2011-07-20 20:21 
igor911 
Відео Гуртом
Відео Гуртом


З нами з: 18.01.08
Востаннє: 20.10.17
Повідомлень: 7924

2017-01-29 14:27  
До цього фільму є рімейк 2004 року з Дензелом Вашингтоном - Гнів / Лють / Man on Fire (2004)
Ваш часовий пояс: GMT + 2 Години

Нова тема   Відповісти