13 (Тринадцять) / 13 (2010) 1080p Ukr/Eng | Sub Eng

Нові коментарі

Нова тема   Відповісти
Автор Повідомлення
staf777 
Відео Гуртом - підтримка та поширення
Відео Гуртом - підтримка та поширення


З нами з: 16.11.16
Востаннє: 23.04.19
Повідомлень: 2284

2017-01-28 04:16  
13 (Тринадцять) / 13 (2010) 1080p Ukr/Eng | Sub Eng

13 (Тринадцять) / 13 (2010) 1080p Ukr/Eng | Sub Eng
Оригінальний постер

13 (Тринадцять) / 13 (2010) 1080p Ukr/Eng | Sub Eng
Жанр: драма, трилер
Країна: США



Кінокомпанія: Barbarian Films - Magnet Media Group - Morabito Picture Company
Режисер: Гела Баблуані
Актори: Джейсон Стетхем, Мікі Рурк, Майкл Шеннон, Сем Райлі

Сюжет:
Головний герой, молодий і наївний Вінс, випадково дізнається про швидкий спосіб розбагатіти. Легка справа — точно виконати інструкції, які прийдуть поштою в смугастому конверті. Після того, як передбачуваний одержувач листа помирає від серцевого нападу, парубок вирішується на авантюру. Він видає себе за покійного, не підозрюючи, що вплутується в смертельно небезпечну гру. У гонитві за легкими грошима герой потрапляє на підпільний тоталізатор по російській рулетці. Йому доведеться спустити курок — з 13 чоловік виживе троє.


Тривалість: 01:37:15
Якість: 1080p
Відео:
кодек:
розмір кадру: 1920x816
бітрейт: 14.3 Mб/с

Аудіо # 1:
мова: українська
переклад: професійний дубльований
кодек: 5.1
бітрейт: 384 кб/с

Аудіо # 2:
мова: англійська
переклад: оригінал
кодек: 5.1
бітрейт: 1510 кб/с

Джерело озвучення:
"Tretyakoff production" на офіційне замовлення "Геміні" у 2010.

Субтитри #1-2:
мова: англійська
тип: програмні (м'які)
формат: *.srt
Info
General
Unique ID : 232683319096095271105406429486986256176 (0xAF0D2D5BB62BB0279B5675B6E0735F30)
Complete name : H:\HDClub\13 (2010) [Ukr,Eng sub.Eng] Remux 1080p [Hurtom].
Format :
Format version : Version 4 / Version 2
File size : 11.2 GiB
Duration : 1h 37mn
Overall bit rate : 16.6 Mbps
Movie name : 13 (2010) [Ukr,Eng sub.Eng] Remux 1080p [Hurtom]
Encoded date : UTC 2017-01-28 01:40:26
Writing application : v9.8.0 ('Kuglblids') 64bit
Writing library : libebml v1.3.4 + v1.4.5
Attachements : cover.jpg / logfile.log
DURATION : 01:27:48.078000000
NUMBER_OF_FRAMES : 533
NUMBER_OF_BYTES : 19083
_STATISTICS_WRITING_APP : v9.8.0 ('Kuglblids') 64bit
_STATISTICS_WRITING_DATE_UTC : 2017-01-28 01:40:26
_STATISTICS_TAGS : BPS DURATION NUMBER_OF_FRAMES NUMBER_OF_BYTES

Video
ID : 1
Format : AVC
Format/Info : Advanced Video Codec
Format profile : [email protected]
Format settings, CABAC : Yes
Format settings, ReFrames : 5 frames
Codec ID : V_MPEG4/ISO/AVC
Duration : 1h 37mn
Bit rate : 14.3 Mbps
Width : 1 920 pixels
Height : 816 pixels
Display aspect ratio : 2.35:1
Frame rate mode : Constant
Frame rate : 23.976 fps
Color space : YUV
Chroma subsampling : 4:2:0
Bit depth : 8 bits
Scan type : Progressive
Bits/(Pixel*Frame) : 0.381
Stream size : 9.74 GiB (87%)
Title : 13 (2010) 1080p [Hurtom]
Writing library : core 148 r2744kMod b97ae06
Encoding settings : cabac=1 / ref=5 / deblock=1:-3:-3 / analyse=0x3:0x133 / me=umh / subme=11 / psy=1 / fade_compensate=0.00 / psy_rd=1.00:0.15 / mixed_ref=1 / me_range=32 / chroma_me=1 / trellis=2 / 8x8dct=1 / cqm=0 / deadzone=21,11 / fast_pskip=0 / chroma_qp_offset=-3 / threads=12 / lookahead_threads=3 / sliced_threads=0 / nr=0 / decimate=0 / interlaced=0 / bluray_compat=0 / constrained_intra=0 / bframes=10 / b_pyramid=2 / b_adapt=2 / b_bias=0 / direct=3 / weightb=1 / open_gop=0 / weightp=2 / keyint=240 / keyint_min=23 / scenecut=40 / intra_refresh=0 / rc_lookahead=80 / rc=crf / mbtree=0 / crf=18.5000 / qcomp=0.60 / qpmin=0 / qpmax=69 / qpstep=4 / vbv_maxrate=62500 / vbv_bufsize=78125 / crf_max=0.0 / nal_hrd=none / filler=0 / ip_ratio=1.30 / pb_ratio=1.20 / aq=3:0.80
Language : English
Default : Yes
Forced : No
Color range : Limited
Color primaries : BT.709
Transfer characteristics : BT.709
Matrix coefficients : BT.709

Audio #1
ID : 2
Format : AC-3
Format/Info : Audio Coding 3
Mode extension : CM (complete main)
Format settings, Endianness : Big
Codec ID : A_AC3
Duration : 1h 37mn
Bit rate mode : Constant
Bit rate : 384 Kbps
Channel(s) : 6 channels
Channel positions : Front: L C R, Side: L R, LFE
Sampling rate : 48.0 KHz
Bit depth : 16 bits
Compression mode : Lossy
Stream size : 267 MiB (2%)
Title : Дубляж, R5
Language : Ukrainian
Default : Yes
Forced : Yes

Audio #2
ID : 3
Format :
Format/Info : Digital Theater Systems
Mode : 16
Format settings, Endianness : Big
Codec ID : A_DTS
Duration : 1h 37mn
Bit rate mode : Constant
Bit rate : 1 510 Kbps
Channel(s) : 6 channels
Channel positions : Front: L C R, Side: L R, LFE
Sampling rate : 48.0 KHz
Bit depth : 24 bits
Compression mode : Lossy
Stream size : 1.03 GiB (9%)
Title : English
Language : English
Default : No
Forced : No

Text #1
ID : 4
Format : UTF-8
Codec ID : S_TEXT/UTF8
Codec ID/Info : UTF-8 Plain Text
Title : English (Forced)
Language : English
Default : No
Forced : No

Text #2
ID : 5
Format : UTF-8
Codec ID : S_TEXT/UTF8
Codec ID/Info : UTF-8 Plain Text
Title : English
Language : English
Default : No
Forced : No

Menu
00:00:00.000 : :Chapter 01
00:06:20.505 : :Chapter 02
00:13:03.240 : :Chapter 03
00:17:24.501 : :Chapter 04
00:24:03.191 : :Chapter 05
00:29:47.243 : :Chapter 06
00:34:10.840 : :Chapter 07
00:41:50.841 : :Chapter 08
00:46:59.942 : :Chapter 09
00:52:09.292 : :Chapter 10
00:57:30.822 : :Chapter 11
01:04:25.736 : :Chapter 12
01:11:02.675 : :Chapter 13
01:17:35.192 : :Chapter 14
01:25:10.146 : :Chapter 15
01:31:18.431 : :Chapter 16
Скріншоти



За українську доріжку подяка пану karvai0
Джерело: &
Особиста оцінка: 0 - не дивився


 Трекер:    Зареєстрований   

Завантажити / скачати фільм українською



відео для новачків



 Зареєстрований:   2017-01-28 07:35
 Розмір:   11.25 GB 
 Оцінка фільму:   8.9/10 (Голосів: 10)
   
fanatos93 
Новенький


З нами з: 13.10.13
Востаннє: 23.04.19
Повідомлень: 21

2017-01-28 17:57  
класний фільм
staf777 
Відео Гуртом - підтримка та поширення
Відео Гуртом - підтримка та поширення


З нами з: 16.11.16
Востаннє: 23.04.19
Повідомлень: 2284

2017-01-30 11:39  
У назві торента зробив помилку 13 (2010) [Ukr,Eng sub.Eng] Remux 1080p [Hurtom]..torrent написав по звички Remux 1080p замість 1080p - гадаю це не дуже страшно
Ваш часовий пояс: GMT + 2 Години

Нова тема   Відповісти