Бартон Фінк / Barton Fink (1991) 1080p Ukr/Eng | Sub Ukr/Eng

Нові коментарі

Нова тема   Відповісти
Автор Повідомлення
НеЗупиняйПродакшн 
Відео Гуртом - озвучення
Відео Гуртом - озвучення


З нами з: 28.07.15
Востаннє: 15.10.18
Повідомлень: 704

2017-01-27 19:59  
Бартон Фінк / Barton Fink (1991) 1080p Ukr/Eng | Sub Ukr/Eng

Бартон Фінк / Barton Fink (1991) 1080p Ukr/Eng | Sub Ukr/Eng


Жанр: драма, чорна комедія, трилер
Країна: США



Режисер: Брати Коен
Актори: Джон Туртурро, Джон Ґудмен, Джуді Дейвіс, Майкл Лернер, Джон Магоні

Сюжет:
Бартон Фінк - драматург-початківець, його остання п'єса має великий успіх. На нього звертає увагу голлівудський продюсер Джек Ліпнік і пропонує Бартону написати сценарій фільму про рестлінг. Фінк селиться в невеликому готелі і намагається почати працювати. Проходить кілька днів, але драматург не в змозі написати жодного рядка, він ніяк не може сконцентруватися на роботі, йому постійно щось заважає. Також до творчої кризи додаються дивні події, які відбуваються в готелі.

Прем'єра стрічки відбулась на Каннському кінофестивалі у 1991 році, де вона отримала кілька нагород, у тому числі головний приз - "Золоту пальмову гілку". Кінокритиками вважається однією з найвдаліших робіт братів Коен.


Тривалість: 01:56:57
Якість: 1080p
Відео:
кодек:
розмір кадру: 1920 х 1040
бітрейт: 15.6 Мб/с

Аудіо # 1:
мова: українська
переклад: багатоголосий закадровий
кодек: 2.0
бітрейт: 384 кб/с

Озвучено студією НеЗупиняйПродакшн


Аудіо # 2:
мова: англійська
переклад: оригінал
кодек: 2.0
бітрейт: 1509 кб/с

Субтитри #1:
мова: українська (робота з субтитрами - спільнота Клясичний український правопис)
тип: програмні (м'які)
формат: *.srt

Субтитри #2:
мова: англійська
тип: програмні (м'які)
формат: *.srt
Info
Video
ID : 1
Format : AVC
Format/Info : Advanced Video Codec
Format profile : [email protected]
Format settings, CABAC : Yes
Format settings, ReFrames : 4 frames
Codec ID : V_MPEG4/ISO/AVC
Duration : 1 h 56 min
Bit rate : 15.6 Mb/s
Width : 1 920 pixels
Height : 1 040 pixels
Display aspect ratio : 1.85:1
Frame rate mode : Constant
Frame rate : 23.976 FPS
Color space : YUV
Chroma subsampling : 4:2:0
Bit depth : 8 bits
Scan type : Progressive
Bits/(Pixel*Frame) : 0.326
Stream size : 12.8 GiB (89%)
Writing library : core 120 r2119 0637cd6
Encoding settings : cabac=1 / ref=4 / deblock=1:-3:-3 / analyse=0x3:0x113 / me=umh / subme=11 / psy=1 / psy_rd=1.05:0.10 / mixed_ref=1 / me_range=48 / chroma_me=1 / trellis=2 / 8x8dct=1 / cqm=0 / deadzone=21,11 / fast_pskip=0 / chroma_qp_offset=-2 / threads=12 / sliced_threads=0 / nr=0 / decimate=1 / interlaced=0 / bluray_compat=0 / constrained_intra=0 / bframes=6 / b_pyramid=2 / b_adapt=2 / b_bias=0 / direct=3 / weightb=1 / open_gop=0 / weightp=2 / keyint=250 / keyint_min=23 / scenecut=40 / intra_refresh=0 / rc_lookahead=60 / rc=2pass / mbtree=1 / bitrate=15624 / ratetol=1.0 / qcomp=0.70 / qpmin=0 / qpmax=69 / qpstep=4 / cplxblur=20.0 / qblur=0.5 / vbv_maxrate=45000 / vbv_bufsize=40000 / nal_hrd=none / ip_ratio=1.40 / aq=2:0.90
Language : English
Default : No
Forced : No

Audio #1
ID : 2
Format : AC-3
Format/Info : Audio Coding 3
Mode extension : CM (complete main)
Format settings, Endianness : Big
Codec ID : A_AC3
Duration : 1 h 56 min
Bit rate mode : Constant
Bit rate : 384 kb/s
Channel(s) : 2 channels
Channel positions : Front: L R
Sampling rate : 44.1 kHz
Frame rate : 28.711 FPS (1536 spf)
Compression mode : Lossy
Stream size : 321 MiB (2%)
Title : Українська (НеЗупиняйПродакшн)
Language : Ukrainian
Default : Yes
Forced : No

Audio #2
ID : 3
Format :
Format/Info : Digital Theater Systems
Mode : 16
Format settings, Endianness : Big
Codec ID : A_DTS
Duration : 1 h 56 min
Bit rate mode : Constant
Bit rate : 1 509 kb/s
Channel(s) : 2 channels
Channel positions : Front: L R
Sampling rate : 48.0 kHz
Frame rate : 93.750 FPS (512 spf)
Bit depth : 24 bits
Compression mode : Lossy
Stream size : 1.23 GiB (9%)
Language : English
Default : No
Forced : No

Text #1
ID : 4
Format : UTF-8
Codec ID : S_TEXT/UTF8
Codec ID/Info : UTF-8 Plain Text
Duration : 1 h 53 min
Bit rate : 103 b/s
Count of elements : 1204
Stream size : 86.0 KiB (0%)
Language : Ukrainian
Default : Yes
Forced : No

Text #2
ID : 5
Format : UTF-8
Codec ID : S_TEXT/UTF8
Codec ID/Info : UTF-8 Plain Text
Duration : 1 h 51 min
Bit rate : 66 b/s
Count of elements : 1474
Stream size : 54.1 KiB (0%)
Language : English
Default : No
Forced : No

Menu
00:00:00.000 : en:00:00:00.000
00:07:52.722 : en:00:07:52.722
00:14:00.214 : en:00:14:00.214
00:18:31.402 : en:00:18:31.402
00:29:21.051 : en:00:29:21.051
00:34:51.214 : en:00:34:51.214
00:37:12.689 : en:00:37:12.689
00:44:05.268 : en:00:44:05.268
00:49:25.921 : en:00:49:25.921
00:56:14.413 : en:00:56:14.413
01:00:41.179 : en:01:00:41.179
01:15:52.339 : en:01:15:52.339
01:20:36.248 : en:01:20:36.248
01:24:34.027 : en:01:24:34.027
01:33:58.424 : en:01:33:58.424
Скріншоти




Особиста оцінка: 10 - без зайвих вагань рекомендую всім!



Авторський реліз (завантажувати можна без реєстрації)
 Трекер:    Зареєстрований   

Завантажити / скачати фільм українською



відео для новачків



 Зареєстрований:   2017-01-27 19:59
 Розмір:   14.31 GB 
 Оцінка фільму:   9/10 (Голосів: 4)
   
poolvetrum 
VIP


З нами з: 01.06.14
Востаннє: 17.10.18
Повідомлень: 266

2017-01-30 02:20  
Єдиний фільм братів Коен, який я подивився із задоволенням від початку до кінця - "Старим тут не місце".
Мав надію на Бартона Фінка, але не зайшло... власне, як і більшість їхніх робіт. Оцінка фільму 6/10 - на любителя творчості братів.

vash1 
Свій


З нами з: 16.03.16
Востаннє: 16.10.18
Повідомлень: 126

2018-08-31 22:19  
poolvetrum написано:

Єдиний фільм братів Коен, який я подивився із задоволенням від початку до кінця - "Старим тут не місце".
Мав надію на Бартона Фінка, але не зайшло... власне, як і більшість їхніх робіт. Оцінка фільму 6/10 - на любителя творчості братів.


спробуйте переглянути в оригіналі

reminor7 
VIP


З нами з: 16.08.11
Востаннє: 16.10.18
Повідомлень: 316

2018-09-01 09:41  
Будь ласка, станьте хтось на роздачу.
Ваш часовий пояс: GMT + 2 Години

Нова тема   Відповісти