Людина у високому замку (Сезон 2) / The Man in the High Castle (Season 2) (2016) 4K 2160p Ukr/Eng | Sub Eng

Нові коментарі

Нова тема   Відповісти
Автор Повідомлення
НеЗупиняйПродакшн 
VIP


З нами з: 28.07.15
Востаннє: 25.08.19
Повідомлень: 938

2017-01-26 23:20  
Людина у високому замку (Сезон 2) / The Man in the High Castle (Season 2) (2016) 4K 2160p Ukr/Eng | Sub Eng

Людина у високому замку (Сезон 2) / The Man in the High Castle (Season 2) (2016) 4K 2160p Ukr/Eng | Sub Eng


Жанр: фантастика, драма, трилер
Країна: США



Режисер: Девід Семел
Актори: Алекса Давалос, Руперт Еванс, Люк Клейнтенк, DJ Куолс, Брінен Браун, Джоель де ла Фуенте, Каллум Кіт Ренні, Керрі-Хіроюкі Таґава та інші

Сюжет:
Погляд на альтернативну історію Північної Америки. Яким могло би бути життя американців, якби Другу світову війну виграли не Союзники, а Вісь. Події розгортаються у США 60-х років.


Тривалість: 1 серія: ~ 01:00:00 (цілком серій: 10)
Перелік серій
1. Печера тигра
2. Непротоптана стежка
3. Мандрівники
4. Ескалація
5. Пригнись та сховайся
6. Кінцуґі
7. Країна посмішок
8. Довгий язик
9. Детонація
10. Радіоактивні опади
Якість: 2160p (4K)
Відео:
кодек:
розмір кадру: 3840 х 2160
бітрейт: 19,9 Мб/с

Аудіо 1:
мова: українська (професійний багатоголосий закадровий)
кодек: 5.1
бітрейт: 640 кб/с

Озвучено студією НеЗупиняйПродакшн


Аудіо 2:
мова: англійська (оригінал)
кодек: E- 5.1
бітрейт: 640 кб/с

Субтитри :
мова: англійська
тип: програмні (м'які)
формат: *.srt
Скріншоти









Info

Video
ID : 1
Format : AVC
Format/Info : Advanced Video Codec
Format profile : [email protected]
Format settings, CABAC : Yes
Format settings, ReFrames : 5 frames
Codec ID : V_MPEG4/ISO/AVC
Duration : 59 min
Bit rate : 19.9 Mb/s
Width : 3 840 pixels
Height : 2 160 pixels
Display aspect ratio : 16:9
Frame rate mode : Constant
Frame rate : 23.976 (24000/1001) FPS
Color space : YUV
Chroma subsampling : 4:2:0
Bit depth : 8 bits
Scan type : Progressive
Bits/(Pixel*Frame) : 0.100
Stream size : 8.28 GiB (94%)
Writing library : core 148 r2638 7599210
Encoding settings : cabac=1 / ref=5 / deblock=1:-3:-3 / analyse=0x3:0x133 / me=umh / subme=10 / psy=1 / psy_rd=1.00:0.00 / mixed_ref=1 / me_range=48 / chroma_me=1 / trellis=2 / 8x8dct=1 / cqm=0 / deadzone=21,11 / fast_pskip=1 / chroma_qp_offset=-2 / threads=12 / lookahead_threads=2 / sliced_threads=0 / nr=0 / decimate=0 / interlaced=0 / bluray_compat=0 / constrained_intra=0 / bframes=8 / b_pyramid=2 / b_adapt=2 / b_bias=0 / direct=3 / weightb=1 / open_gop=0 / weightp=2 / keyint=240 / keyint_min=23 / scenecut=40 / intra_refresh=0 / rc_lookahead=60 / rc=crf / mbtree=1 / crf=17.0 / qcomp=0.70 / qpmin=0 / qpmax=69 / qpstep=4 / vbv_maxrate=300000 / vbv_bufsize=300000 / crf_max=0.0 / nal_hrd=none / filler=0 / ip_ratio=1.40 / aq=1:0.70
Default : Yes
Forced : No

Audio #1
ID : 2
Format : AC-3
Format/Info : Audio Coding 3
Mode extension : CM (complete main)
Format settings, Endianness : Big
Codec ID : A_AC3
Duration : 59 min
Bit rate mode : Constant
Bit rate : 640 kb/s
Channel(s) : 6 channels
Channel positions : Front: L C R, Side: L R, LFE
Sampling rate : 48.0 kHz
Frame rate : 31.250 FPS (1536 spf)
Compression mode : Lossy
Delay relative to video : 8 s 36 ms
Stream size : 272 MiB (3%)
Title : Українська (НеЗупиняйПродакшн)
Language : Ukrainian
Default : Yes
Forced : No

Audio #2
ID : 3
Format : E-AC-3
Format/Info : Audio Coding 3
Format settings, Endianness : Big
Codec ID : A_EAC3
Duration : 59 min
Bit rate mode : Constant
Bit rate : 640 kb/s
Channel(s) : 6 channels
Channel positions : Front: L C R, Side: L R, LFE
Sampling rate : 48.0 kHz
Frame rate : 187.500 FPS (256 spf)
Compression mode : Lossy
Stream size : 273 MiB (3%)
Language : English
Default : No
Forced : No

Text
ID : 4
Format : UTF-8
Codec ID : S_TEXT/UTF8
Codec ID/Info : UTF-8 Plain Text
Duration : 56 min
Bit rate : 56 b/s
Count of elements : 880
Stream size : 23.3 KiB (0%)
Default : Yes
Forced : No




Авторський реліз (завантажувати можна без реєстрації)
 Трекер:    Зареєстрований   

Завантажити / скачати серіал українською



відео для новачків



 Зареєстрований:   2017-01-27 00:04
 Розмір:   90.08 GB 
 Оцінка серіалу:   9.9/10 (Голосів: 18)
   
OL3X 
VIP


З нами з: 25.11.15
Востаннє: 23.08.19
Повідомлень: 440

2017-01-27 00:19  
Вдячний за 4К і чудовий звук
Estranded 
VIP


З нами з: 09.02.14
Востаннє: 26.08.19
Повідомлень: 1395

2017-01-27 11:06  
ого, нічого собі... 4к
The_Marlboro 
Відео Гуртом - субтитрування
Відео Гуртом - субтитрування


З нами з: 23.05.10
Востаннє: 18.08.19
Повідомлень: 2939

2017-01-27 11:31  
До, речі, можна підтримати видання книги, за якою знятий серіал Філіп К. Дік "Людина у високому замку"
ImfromUkraine 
VIP


З нами з: 18.02.12
Востаннє: 25.08.19
Повідомлень: 338

2017-01-27 20:20  
якщо монітор максимум 1080 то різниці між фул хд і 4к видно не буде, я правильно розумію?
igor911 
Модератор відео


З нами з: 18.01.08
Востаннє: 26.08.19
Повідомлень: 13179

2017-01-27 20:21  
ImfromUkraine, правильно.
ImfromUkraine 
VIP


З нами з: 18.02.12
Востаннє: 25.08.19
Повідомлень: 338

2017-01-27 20:22  
igor911
дякую)

Glober 
Новенький


З нами з: 12.07.11
Востаннє: 22.08.19
Повідомлень: 14

2017-01-27 20:27  
дякую, нарешті кльова якість!!!
Glober 
Новенький


З нами з: 12.07.11
Востаннє: 22.08.19
Повідомлень: 14

2017-01-30 22:37  
Хлопці, поясність, будь-ласка, перші дві серії на телевізорі йдуть суперски, а далі не вдається розпізнати файл. В чому причина?
НеЗупиняйПродакшн 
VIP


З нами з: 28.07.15
Востаннє: 25.08.19
Повідомлень: 938

2017-01-30 22:44  
Glober написано:
Хлопці, поясність, будь-ласка, перші дві серії на телевізорі йдуть суперски, а далі не вдається розпізнати файл. В чому причина?

Це у кожній серії після перших двох чи конкретно у третій?

Glober 
Новенький


З нами з: 12.07.11
Востаннє: 22.08.19
Повідомлень: 14

2017-01-30 22:53  
на жаль, кожна (((
igor911 
Модератор відео


З нами з: 18.01.08
Востаннє: 26.08.19
Повідомлень: 13179

2017-01-30 22:56  
Glober, виклади під спойлером медіаінфо норм серії та проблемної, також яким програвачем переглядаєш.
Glober 
Новенький


З нами з: 12.07.11
Востаннє: 22.08.19
Повідомлень: 14

2017-01-30 22:59  
переглядаю на телевізорі LG43UH651V, читає все 4К
НеЗупиняйПродакшн 
VIP


З нами з: 28.07.15
Востаннє: 25.08.19
Повідомлень: 938

2017-01-30 23:04  
igor911 написано:
Glober, виклади під спойлером медіаінфо норм серії та проблемної, також яким програвачем переглядаєш.
1-2 серії (відворюються у Glober)

Video
ID : 1
Format : AVC
Format/Info : Advanced Video Codec
Format profile : [email protected]
Format settings, CABAC : Yes
Format settings, ReFrames : 5 frames
Codec ID : V_MPEG4/ISO/AVC
Duration : 57 min
Bit rate : 21.2 Mb/s
Width : 3 840 pixels
Height : 2 160 pixels
Display aspect ratio : 16:9
Frame rate mode : Constant
Frame rate : 23.976 (24000/1001) FPS
Color space : YUV
Chroma subsampling : 4:2:0
Bit depth : 8 bits
Scan type : Progressive
Bits/(Pixel*Frame) : 0.107
Stream size : 8.46 GiB (94%)
Writing library : core 148 r2638 7599210
Encoding settings : cabac=1 / ref=5 / deblock=1:-3:-3 / analyse=0x3:0x133 / me=umh / subme=10 / psy=1 / psy_rd=1.00:0.00 / mixed_ref=1 / me_range=48 / chroma_me=1 / trellis=2 / 8x8dct=1 / cqm=0 / deadzone=21,11 / fast_pskip=1 / chroma_qp_offset=-2 / threads=12 / lookahead_threads=2 / sliced_threads=0 / nr=0 / decimate=0 / interlaced=0 / bluray_compat=0 / constrained_intra=0 / bframes=8 / b_pyramid=2 / b_adapt=2 / b_bias=0 / direct=3 / weightb=1 / open_gop=0 / weightp=2 / keyint=240 / keyint_min=23 / scenecut=40 / intra_refresh=0 / rc_lookahead=60 / rc=crf / mbtree=1 / crf=17.0 / qcomp=0.70 / qpmin=0 / qpmax=69 / qpstep=4 / vbv_maxrate=300000 / vbv_bufsize=300000 / crf_max=0.0 / nal_hrd=none / filler=0 / ip_ratio=1.40 / aq=1:0.70
Default : Yes
Forced : No

Audio #1
ID : 2
Format : AC-3
Format/Info : Audio Coding 3
Mode extension : CM (complete main)
Format settings, Endianness : Big
Codec ID : A_AC3
Duration : 57 min
Bit rate mode : Constant
Bit rate : 640 kb/s
Channel(s) : 6 channels
Channel positions : Front: L C R, Side: L R, LFE
Sampling rate : 48.0 kHz
Frame rate : 31.250 FPS (1536 spf)
Compression mode : Lossy
Stream size : 261 MiB (3%)
Title : Українська (НеЗупиняйПродакшн)
Language : Ukrainian
Default : Yes
Forced : No

Audio #2
ID : 3
Format : E-AC-3
Format/Info : Audio Coding 3
Format settings, Endianness : Big
Codec ID : A_EAC3
Duration : 57 min
Bit rate mode : Constant
Bit rate : 640 kb/s
Channel(s) : 6 channels
Channel positions : Front: L C R, Side: L R, LFE
Sampling rate : 48.0 kHz
Frame rate : 187.500 FPS (256 spf)
Compression mode : Lossy
Stream size : 261 MiB (3%)
Language : English
Default : No
Forced : No

Text #1
ID : 4
Format : UTF-8
Codec ID : S_TEXT/UTF8
Codec ID/Info : UTF-8 Plain Text
Duration : 53 min
Bit rate : 42 b/s
Count of elements : 637
Stream size : 16.8 KiB (0%)
Title : English
Language : English
Default : No
Forced : No

Text #2
ID : 5
Format : UTF-8
Codec ID : S_TEXT/UTF8
Codec ID/Info : UTF-8 Plain Text
Duration : 54 min
Bit rate : 47 b/s
Count of elements : 720
Stream size : 18.8 KiB (0%)
Title : English (SDH)
Language : English
Default : No
Forced : No
3 серія (не відтворюється)
Format :
Format version : Version 4 / Version 2
File size : 8.81 GiB
Duration : 59 min
Overall bit rate : 21.2 Mb/s
Movie name : Людина у високому замку | 2 сезон | Озвучено на НеЗупиняйПродакшн
Encoded date : UTC 2017-01-26 17:59:39
Writing application : v8.3.0 ('Over the Horizon') 64bit
Writing library : libebml v1.3.1 + v1.4.2
Cover : Yes
Attachments : cover.jpg

Video
ID : 1
Format : AVC
Format/Info : Advanced Video Codec
Format profile : [email protected]
Format settings, CABAC : Yes
Format settings, ReFrames : 5 frames
Codec ID : V_MPEG4/ISO/AVC
Duration : 59 min
Bit rate : 19.9 Mb/s
Width : 3 840 pixels
Height : 2 160 pixels
Display aspect ratio : 16:9
Frame rate mode : Constant
Frame rate : 23.976 (24000/1001) FPS
Color space : YUV
Chroma subsampling : 4:2:0
Bit depth : 8 bits
Scan type : Progressive
Bits/(Pixel*Frame) : 0.100
Stream size : 8.28 GiB (94%)
Writing library : core 148 r2638 7599210
Encoding settings : cabac=1 / ref=5 / deblock=1:-3:-3 / analyse=0x3:0x133 / me=umh / subme=10 / psy=1 / psy_rd=1.00:0.00 / mixed_ref=1 / me_range=48 / chroma_me=1 / trellis=2 / 8x8dct=1 / cqm=0 / deadzone=21,11 / fast_pskip=1 / chroma_qp_offset=-2 / threads=12 / lookahead_threads=2 / sliced_threads=0 / nr=0 / decimate=0 / interlaced=0 / bluray_compat=0 / constrained_intra=0 / bframes=8 / b_pyramid=2 / b_adapt=2 / b_bias=0 / direct=3 / weightb=1 / open_gop=0 / weightp=2 / keyint=240 / keyint_min=23 / scenecut=40 / intra_refresh=0 / rc_lookahead=60 / rc=crf / mbtree=1 / crf=17.0 / qcomp=0.70 / qpmin=0 / qpmax=69 / qpstep=4 / vbv_maxrate=300000 / vbv_bufsize=300000 / crf_max=0.0 / nal_hrd=none / filler=0 / ip_ratio=1.40 / aq=1:0.70
Default : Yes
Forced : No

Audio #1
ID : 2
Format : AC-3
Format/Info : Audio Coding 3
Mode extension : CM (complete main)
Format settings, Endianness : Big
Codec ID : A_AC3
Duration : 59 min
Bit rate mode : Constant
Bit rate : 640 kb/s
Channel(s) : 6 channels
Channel positions : Front: L C R, Side: L R, LFE
Sampling rate : 48.0 kHz
Frame rate : 31.250 FPS (1536 spf)
Compression mode : Lossy
Delay relative to video : 8 s 36 ms
Stream size : 272 MiB (3%)
Title : Українська (НеЗупиняйПродакшн)
Language : Ukrainian
Default : Yes
Forced : No

Audio #2
ID : 3
Format : E-AC-3
Format/Info : Audio Coding 3
Format settings, Endianness : Big
Codec ID : A_EAC3
Duration : 59 min
Bit rate mode : Constant
Bit rate : 640 kb/s
Channel(s) : 6 channels
Channel positions : Front: L C R, Side: L R, LFE
Sampling rate : 48.0 kHz
Frame rate : 187.500 FPS (256 spf)
Compression mode : Lossy
Stream size : 273 MiB (3%)
Language : English
Default : No
Forced : No

Text
ID : 4
Format : UTF-8
Codec ID : S_TEXT/UTF8
Codec ID/Info : UTF-8 Plain Text
Duration : 56 min
Bit rate : 56 b/s
Count of elements : 880
Stream size : 23.3 KiB (0%)
Default : Yes
Forced : No

igor911 
Модератор відео


З нами з: 18.01.08
Востаннє: 26.08.19
Повідомлень: 13179

2017-01-30 23:07  
НеЗупиняйПродакшн написано:
Bit rate : 2 907 kb/s
Width : 1 280 pixels
Height : 720 pixels
це не з цього релізу, а з 720ки.
НеЗупиняйПродакшн 
VIP


З нами з: 28.07.15
Востаннє: 25.08.19
Повідомлень: 938

2017-01-30 23:08  
igor911 написано:
це не з цього релізу, а з 720ки.

Вже виправлено.

igor911 
Модератор відео


З нами з: 18.01.08
Востаннє: 26.08.19
Повідомлень: 13179

2017-01-30 23:20  
Наче однакові параметри ріпів в обох випадках, правда не знаю, які апаратні обмеження в нових 4К телеках. Glober, а на компі відтворюються норм?
Glober 
Новенький


З нами з: 12.07.11
Востаннє: 22.08.19
Повідомлень: 14

2017-01-30 23:22  
так на компі йдуть
igor911 
Модератор відео


З нами з: 18.01.08
Востаннє: 26.08.19
Повідомлень: 13179

2017-01-30 23:27  
НеЗупиняйПродакшн написано:
Delay relative to video : 8 s 36 ms

Можливо, ось ця велика затримка укр.доріжки відносно відео не сприймається телевізором, на моєму самсунгі таке було, зовсім не хотів відтворювати.

Glober 
Новенький


З нами з: 12.07.11
Востаннє: 22.08.19
Повідомлень: 14

2017-01-30 23:29  
в перших двох серіях її немає?
igor911 
Модератор відео


З нами з: 18.01.08
Востаннє: 26.08.19
Повідомлень: 13179

2017-01-30 23:30  
НеЗупиняйПродакшн, користуйтесь невеличкою програмкою delaycut для таких випадків - обрізка/додавання тиші АС3 без перекодування та погіршення якості. Деталі в приват.

Додано через 33 секунди:

Glober, ну всі ж файли в тебе - ось і перевір.

Додано через 31 секунду:

в наведених релізером звітах немає в перших, є в 3й.

Glober 
Новенький


З нами з: 12.07.11
Востаннє: 22.08.19
Повідомлень: 14

2017-01-30 23:34  
там перші дві серії починаються з амазона, а з третьої йде завтавка спочатку, можливо вона впливає? ніби підтуплює на компі навіть.
igor911 
Модератор відео


З нами з: 18.01.08
Востаннє: 26.08.19
Повідомлень: 13179

2017-01-30 23:42  
Glober, впливає те, що звукова доріжка за замовчуванням починається через 8,5 секунд після відео, телек напевно таких фокусів з контейнером не розуміє. В мене було таке і на набагато меншій затримці (десь 2-3с)
Glober 
Новенький


З нами з: 12.07.11
Востаннє: 22.08.19
Повідомлень: 14

2017-01-30 23:44  
я про те ж саме і говорю, дві серії йшли без цієї заставки, де ніби все завмирає, а з третьої і до кінця вона є, і займає якраз стільки часу 8с. в ріпі 1080p її немає, не знаю навіщо залишили тут (
igor911 
Модератор відео


З нами з: 18.01.08
Востаннє: 26.08.19
Повідомлень: 13179

2017-01-30 23:48  
Glober, відіслав у приват лінк та інструкцію по програмці delaycut для зсуву/обрізки укр.доріжки. Сподіваюсь, mkvtoolnix'ом користуватись вмієш чи витягнути АС3 з матрьошки (gMKVExtractGUI)?

Додано через 16 секунд:

Glober, відіслав у приват лінк та інструкцію по програмці delaycut для зсуву/обрізки укр.доріжки. Сподіваюсь, mkvtoolnix'ом користуватись вмієш чи витягнути АС3 з матрьошки (gMKVExtractGUI)?

Glober 
Новенький


З нами з: 12.07.11
Востаннє: 22.08.19
Повідомлень: 14

2017-01-30 23:50  
спробую розібратись, дякую
vlasentiy 
Новенький


З нами з: 26.06.18
Востаннє: 25.08.19
Повідомлень: 3

2019-01-26 11:03  
Поверніться на роздачу, будь ласка !
Ваш часовий пояс: GMT + 2 Години

Нова тема   Відповісти