Тролі / Trolls (2016) Remux 1080p Ukr/Eng | Sub Ukr/Eng

Нові коментарі

Нова тема   Відповісти
Автор Повідомлення
staf777 
Відео Гуртом - підтримка та поширення
Відео Гуртом - підтримка та поширення


З нами з: 16.11.16
Востаннє: 16.08.17
Повідомлень: 522

2017-01-26 02:38  
Тролі / Trolls (2016) Remux 1080p Ukr/Eng | Sub Ukr/Eng

Тролі / Trolls (2016) Remux 1080p Ukr/Eng | Sub Ukr/Eng

«Знайди своє щасливе місце»


Оригінальний постер

Тролі / Trolls (2016) Remux 1080p Ukr/Eng | Sub Ukr/Eng
Жанр: анімація, пригоди, сімейний
Країна: США



Кінокомпанія: DreamWorks Animation, 20th Century Fox
Режисер: Майк Мітчелл, Уолт Дорн
Актори: Анна Кендрік, Джастін Тімберлейк, Зої Дешанель, Крістін Баранськи, Рассел Бренд, Крістофер Мінц-Плассе, Джеффрі Тембор, Кунал Нейер, Куавенжаней Уолліс, Джон Кліз та інші

Сюжет:
«Тролі» студії DreamWorks Animation – це неймовірно смішна комедія від геніальних творців «Шрека» з приголомшливою музикою. Ці крихітні кумедні створіння вирушать у пригоди, які віднесуть їх далеко за межі світу, який вони знають.


Тривалість: 01:32:27
Якість: Remux 1080p
Відео:
кодек:
розмір кадру: 1920x1080
бітрейт: 26,6 Mб/с

Аудіо # 1:
мова: українська
переклад: професійний дубльований
кодек: 5.1
бітрейт: 448 кб/с

Аудіо # 2:
мова: англійська
переклад: оригінал
кодек: -HD MA 7.1
бітрейт: 4467 кб/с

Аудіо # 3:
мова: англійська
переклад: описова
кодек: 5.1
бітрейт: 448 кб/с

Субтитри # 1:
мова: українська
тип: пререндерні (iTunes)
формат: PGS

Субтитри # 2:
мова: англійська
тип: пререндерні
формат: PGS
Info
Код:
General
Unique ID                                : 248462183388658931367813679395564527325 (0xBAEC136E6B2D979FBA3B34562FE99EDD)
Complete name                            : H:\» HD українською » Мультфільми в HD\Trolls (2016)  [Ukr,Eng sub.Ukr,Eng] Remux 1080p [Hurtom].
Format                                   :
Format version                           : Version 4 / Version 2
File size                                : 20.7 GiB
Duration                                 : 1 h 32 min
Overall bit rate mode                    : Variable
Overall bit rate                         : 32.0 Mb/s
Movie name                               : Trolls (2016)  [Ukr,Eng sub.Ukr,Eng] Remux 1080p [Hurtom]
Encoded date                             : UTC 2017-02-24 08:16:15
Writing application                      : mkvmerge v9.8.0 ('Kuglblids') 64bit
Writing library                          : libebml v1.3.4 + libmatroska v1.4.5
Cover                                    : Yes
Attachments                              : cover

Video
ID                                       : 1
Format                                   : AVC
Format/Info                              : Advanced Video Codec
Format profile                           : [email protected]
Format settings, CABAC                   : Yes
Format settings, ReFrames                : 4 frames
Codec ID                                 : V_MPEG4/ISO/AVC
Duration                                 : 1 h 32 min
Bit rate mode                            : Variable
Bit rate                                 : 26.6 Mb/s
Maximum bit rate                         : 33.0 Mb/s
Width                                    : 1 920 pixels
Height                                   : 1 080 pixels
Display aspect ratio                     : 16:9
Frame rate mode                          : Constant
Frame rate                               : 23.976 (24000/1001) FPS
Color space                              : YUV
Chroma subsampling                       : 4:2:0
Bit depth                                : 8 bits
Scan type                                : Progressive
Bits/(Pixel*Frame)                       : 0.535
Stream size                              : 17.2 GiB (83%)
Title                                    : Trolls (2016) Remux 1080p [Hurtom]
Default                                  : Yes
Forced                                   : No

Audio #1
ID                                       : 2
Format                                   : AC-3
Format/Info                              : Audio Coding 3
Mode extension                           : CM (complete main)
Format settings, Endianness              : Big
Codec ID                                 : A_AC3
Duration                                 : 1 h 32 min
Bit rate mode                            : Constant
Bit rate                                 : 448 kb/s
Channel(s)                               : 6 channels
Channel positions                        : Front: L C R, Side: L R, LFE
Sampling rate                            : 48.0 kHz
Frame rate                               : 31.250 FPS (1536 spf)
Bit depth                                : 16 bits
Compression mode                         : Lossy
Stream size                              : 296 MiB (1%)
Title                                    : 5.1 @ 448 kbps
Language                                 : Ukrainian
Default                                  : Yes
Forced                                   : Yes

Audio #2
ID                                       : 3
Format                                   :
Format/Info                              : Digital Theater Systems
Format profile                           : MA / ES Matrix / Core
Mode                                     : 16
Format settings, Endianness              : Big
Codec ID                                 : A_DTS
Duration                                 : 1 h 32 min
Bit rate mode                            : Variable / Constant / Constant
Bit rate                                 : 4 467 kb/s / 1 509 kb/s / 1 509 kb/s
Channel(s)                               : 8 channels / 7 channels / 6 channels
Channel positions                        : Front: L C R, Side: L R, Back: L R, LFE / Front: L C R, Side: L R, Back: C, LFE / Front: L C R, Side: L R, LFE
Sampling rate                            : 48.0 kHz
Frame rate                               : 93.750 FPS (512 spf)
Bit depth                                : 24 bits
Compression mode                         : Lossless / Lossy / Lossy
Stream size                              : 2.88 GiB (14%)
Title                                    : [Original]
Language                                 : English
Default                                  : No
Forced                                   : No

Audio #3
ID                                       : 4
Format                                   : AC-3
Format/Info                              : Audio Coding 3
Mode extension                           : CM (complete main)
Format settings, Endianness              : Big
Codec ID                                 : A_AC3
Duration                                 : 1 h 32 min
Bit rate mode                            : Constant
Bit rate                                 : 448 kb/s
Channel(s)                               : 6 channels
Channel positions                        : Front: L C R, Side: L R, LFE
Sampling rate                            : 48.0 kHz
Frame rate                               : 31.250 FPS (1536 spf)
Bit depth                                : 16 bits
Compression mode                         : Lossy
Stream size                              : 296 MiB (1%)
Title                                    : [Descriptive]
Language                                 : English
Default                                  : No
Forced                                   : No

Text #1
ID                                       : 5
Format                                   : PGS
Muxing mode                              : zlib
Codec ID                                 : S_HDMV/PGS
Codec ID/Info                            : Picture based subtitle format used on BDs/HD-DVDs
Duration                                 : 1 h 31 min
Bit rate                                 : 22.6 kb/s
Count of elements                        : 2730
Stream size                              : 14.8 MiB (0%)
Language                                 : Ukrainian
Default                                  : Yes
Forced                                   : No

Text #2
ID                                       : 6
Format                                   : PGS
Muxing mode                              : zlib
Codec ID                                 : S_HDMV/PGS
Codec ID/Info                            : Picture based subtitle format used on BDs/HD-DVDs
Duration                                 : 1 h 29 min
Bit rate                                 : 16.8 kb/s
Count of elements                        : 3813
Stream size                              : 10.8 MiB (0%)
Language                                 : English
Default                                  : No
Forced                                   : No
Скріншоти






Джерело:
Особиста оцінка: 0 - не дивився
Тролі / Trolls (2016) Remux 1080p Ukr/Eng | Sub Ukr/Eng


Золотий реліз (завантажене не впливає на рейтинг)
 Трекер:    Зареєстрований   

Завантажити / скачати мультфільм українською



відео для новачків



 Зареєстрований:   2017-02-24 12:29
 Розмір:   20.68 GB 
 Оцінка мультфільму:   9.9/10 (Голосів: 9)
   
Інші релізи
   Тролі / Trolls (2016) AngryBirdsUA  162 / 5   1.45 GB   2017-02-26 14:44 
   Тролі / Trolls (2016) AVC AngryBirdsUA  16 / 0   1.86 GB   2017-02-26 14:44 
   Тролі / Trolls (2016) 720p Ukr/Eng | Sub Ukr/Eng 11FrYkT  47 / 1   3.19 GB   2017-02-24 08:19 
   Тролі / Trolls (2016) 1080p Ukr/Eng │ Sub Ukr/Eng Electroz  17 / 0   8.2 GB   2017-02-23 23:04 
staf777 
Відео Гуртом - підтримка та поширення
Відео Гуртом - підтримка та поширення


З нами з: 16.11.16
Востаннє: 16.08.17
Повідомлень: 522

2017-02-24 12:35  
24.02.2017 Роздачу оновлено
Замінив доріжку з

Uberwinder 
Свій


З нами з: 18.11.16
Востаннє: 20.08.17
Повідомлень: 110

2017-03-29 21:05  
Цілком пристойний мультфільм з гарним перекладом.
Ваш часовий пояс: GMT + 2 Години

Нова тема   Відповісти