Нова ера Z / The Girl with All the Gifts (2016) 1080p Ukr/Eng | Sub Eng

Нові коментарі

Нова тема   Відповісти
Автор Повідомлення
staf777 
Попереджень: 1
Попереджень: 1 


З нами з: 16.11.16
Востаннє: 16.01.18
Повідомлень: 558

2017-01-25 21:01  
Нова ера Z / The Girl with All the Gifts (2016) 1080p Ukr/Eng | Sub Eng



Жанр: драма, трилер, жахи
Країна: США, Велика Британія



Кінокомпанія: Poison Chef, BFI Film Fund, Altitude Film Sales
Режисер: Колм МакКарті
Актори: Корбин Рейд, Уес Робінсон, Велорі Керрі, Джеймс Аллен МакКьюн, Каллі Ернандес, Брендон Скотт

Сюжет:
Майбутнє. Планета заражена смертоносною грибковою спорою. Головна героїня Мелані на перший погляд здається зовсім звичайною. Але насправді дівчина володіє феноменальним рівнем IQ, а в її крові живе смертельний вірус. Мелані разом з декількома ровесницями схована урядом в засекреченому військовому бункері, який знаходиться під землею. З їхньою допомогою вчені прагнуть знайти вакцину від смертельної інфекції. Одного разу, всім доведеться покинути бункер. А Мелані стане останньою надією людства на порятунок.


Тривалість: 01:50:55
Якість: 1080p

Відео:
кодек:
розмір кадру: 1920x956
бітрейт: 16,6 Mб/с

Аудіо # 1:
мова: українська
переклад: багатоголосий закадровий
кодек: -HD MA 5.1
бітрейт: 3840 кб/с

Аудіо # 2:
мова: українська
переклад: багатоголосий закадровий
кодек: 5.1
бітрейт: 640 кб/с

Аудіо # 3:
мова: англійська
переклад: оригінал
кодек: 5.1
бітрейт: 1509 кб/с

Субтитри:
мова: англійська
тип: програмні (м'які)
формат: *.srt

Скріншоти



Info
Код:

General
Unique ID                                : 249852945440855760056065850404418416584 (0xBBF7ED4B66D94558A48B95334B8CEFC8)
Complete name                            : H:\» HD українською » Фільми в HD\Жахи\The Girl with All the Gifts (2016) [Ukr,Eng] 1080p [Hurtom] (1).
Format                                   :
Format version                           : Version 4 / Version 2
File size                                : 17.5 GiB
Duration                                 : 1 h 50 min
Overall bit rate                         : 22.6 Mb/s
Movie name                               : The Girl with All the Gifts (2016) [Ukr,Eng] 1080p [Hurtom]
Encoded date                             : UTC 2017-02-18 08:37:57
Writing application                      : mkvmerge v9.8.0 ('Kuglblids') 64bit
Writing library                          : libebml v1.3.4 + libmatroska v1.4.5

Video
ID                                       : 1
Format                                   : AVC
Format/Info                              : Advanced Video Codec
Format profile                           : [email protected]
Format settings, CABAC                   : Yes
Format settings, ReFrames                : 4 frames
Codec ID                                 : V_MPEG4/ISO/AVC
Duration                                 : 1 h 50 min
Bit rate                                 : 16.6 Mb/s
Width                                    : 1 920 pixels
Height                                   : 956 pixels
Display aspect ratio                     : 2.008
Frame rate mode                          : Constant
Frame rate                               : 23.976 (24000/1001) FPS
Color space                              : YUV
Chroma subsampling                       : 4:2:0
Bit depth                                : 8 bits
Scan type                                : Progressive
Bits/(Pixel*Frame)                       : 0.378
Stream size                              : 12.9 GiB (74%)
Title                                    : The Girl with All the Gifts (2016) 1080p [Hurtom]
Writing library                          : core 142 r2431+42 c69a006 tMod [[email protected]:2:0 X86_64]
Encoding settings                        : cabac=1 / ref=4 / deblock=1:-3:-3 / analyse=0x3:0x113 / me=umh / subme=10 / psy=1 / fade_compensate=0.00 / psy_rd=1.05:0.00 / mixed_ref=1 / me_range=32 / chroma_me=1 / trellis=2 / 8x8dct=1 / cqm=0 / deadzone=21,11 / fast_pskip=0 / chroma_qp_offset=-2 / threads=6 / lookahead_threads=1 / sliced_threads=0 / nr=0 / decimate=0 / interlaced=0 / bluray_compat=0 / constrained_intra=0 / fgo=0 / bframes=8 / b_pyramid=2 / b_adapt=2 / b_bias=0 / direct=3 / weightb=1 / open_gop=0 / weightp=2 / keyint=250 / keyint_min=23 / scenecut=40 / intra_refresh=0 / rc_lookahead=60 / rc=crf / mbtree=0 / crf=17.2000 / qcomp=0.65 / qpmin=0:0:0 / qpmax=49:49:49 / qpstep=4 / vbv_maxrate=30000 / vbv_bufsize=38000 / crf_max=0.0 / nal_hrd=none / filler=0 / ip_ratio=1.30 / pb_ratio=1.20 / aq=4:0.75 / aq-sensitivity=10.00 / aq-factor=1.00:1.00:1.00 / aq2=0 / aq3=0
Language                                 : English
Default                                  : Yes
Forced                                   : No
Color range                              : Limited
Color primaries                          : BT.709
Transfer characteristics                 : BT.709
Matrix coefficients                      : BT.709

Audio #1
ID                                       : 2
Format                                   :
Format/Info                              : Digital Theater Systems
Format profile                           : MA / Core
Mode                                     : 16
Format settings, Endianness              : Big
Codec ID                                 : A_DTS
Duration                                 : 1 h 50 min
Bit rate mode                            : Variable / Constant
Bit rate                                 : 3 840 kb/s / 1 509 kb/s
Channel(s)                               : 6 channels
Channel positions                        : Front: L C R, Side: L R, LFE
Sampling rate                            : 48.0 kHz
Frame rate                               : 93.750 FPS (512 spf)
Bit depth                                : 24 bits
Compression mode                         : Lossless / Lossy
Stream size                              : 2.92 GiB (17%)
Language                                 : Ukrainian
Default                                  : Yes
Forced                                   : Yes

Audio #2
ID                                       : 3
Format                                   : AC-3
Format/Info                              : Audio Coding 3
Mode extension                           : CM (complete main)
Format settings, Endianness              : Big
Codec ID                                 : A_AC3
Duration                                 : 1 h 50 min
Bit rate mode                            : Constant
Bit rate                                 : 640 kb/s
Channel(s)                               : 6 channels
Channel positions                        : Front: L C R, Side: L R, LFE
Sampling rate                            : 48.0 kHz
Frame rate                               : 31.250 FPS (1536 spf)
Bit depth                                : 16 bits
Compression mode                         : Lossy
Stream size                              : 508 MiB (3%)
Language                                 : Ukrainian
Default                                  : No
Forced                                   : No

Audio #3
ID                                       : 4
Format                                   :
Format/Info                              : Digital Theater Systems
Mode                                     : 16
Format settings, Endianness              : Big
Codec ID                                 : A_DTS
Duration                                 : 1 h 50 min
Bit rate mode                            : Constant
Bit rate                                 : 1 509 kb/s
Channel(s)                               : 6 channels
Channel positions                        : Front: L C R, Side: L R, LFE
Sampling rate                            : 48.0 kHz
Frame rate                               : 93.750 FPS (512 spf)
Bit depth                                : 24 bits
Compression mode                         : Lossy
Stream size                              : 1.17 GiB (7%)
Title                                    : Original
Language                                 : English
Default                                  : No
Forced                                   : No

Text
ID                                       : 5
Format                                   : UTF-8
Codec ID                                 : S_TEXT/UTF8
Codec ID/Info                            : UTF-8 Plain Text
Duration                                 : 1 h 45 min
Bit rate                                 : 34 b/s
Count of elements                        : 823
Stream size                              : 26.5 KiB (0%)
Language                                 : English
Default                                  : No
Forced                                   : No

Menu
00:00:00.000                             : en:00:00:00.000
00:09:22.312                             : en:00:09:22.312
00:17:59.537                             : en:00:17:59.537
00:31:09.826                             : en:00:31:09.826
00:41:11.636                             : en:00:41:11.636
00:48:34.453                             : en:00:48:34.453
00:58:38.807                             : en:00:58:38.807
01:07:45.561                             : en:01:07:45.561
01:18:03.137                             : en:01:18:03.137
01:25:42.679                             : en:01:25:42.679
01:36:59.772                             : en:01:36:59.772
01:45:52.930                             : en:01:45:52.930

Подяка п.AngryBirdsUA та п.igor911 за допомогу у створенні релізу.


Джерело: &
Особиста оцінка: 8 - мені сподобалося
Нова ера Z / The Girl with All the Gifts (2016) 1080p Ukr/Eng | Sub Eng


 Трекер:    Зареєстрований   

Завантажити / скачати фільм українською



відео для новачків



 Зареєстрований:   2017-02-18 11:19
 Розмір:   17.47 GB 
 Оцінка фільму:   6.2/10 (Голосів: 21)
   
Інші релізи
O_omarella! 
Частий відвідувач


З нами з: 14.06.13
Востаннє: 15.01.18
Повідомлень: 37

2017-01-29 22:19  
Дякую!
Wensun 
Свій


З нами з: 20.01.09
Востаннє: 16.01.18
Повідомлень: 84

2017-02-01 00:56  
То є сильне кіно !!!!!!!! новий підхід, до зомбаків.. то вам не другий сезон "мертві підуть", тут філософія ! нагадує "Я легенда" книжку в кінці. Сильно ! давно не бачив настільки якісного кіна про зомбі.
staf777 
Попереджень: 1
Попереджень: 1 


З нами з: 16.11.16
Востаннє: 16.01.18
Повідомлень: 558

2017-02-18 11:22  
18.02.2017 Роздачу оновлено

Замінив доріжку на 5.1 + Додав -HD MA 5.1

igor911 
Відео Гуртом
Відео Гуртом


З нами з: 18.01.08
Востаннє: 16.01.18
Повідомлень: 8855

2017-02-18 13:13  
staf777 написано:
Додав -HD MA

на майбутнє - в ріпи додають , -HD MA - це для блуреїв та ремуксів.

Додано через 26 секунд:

+золото на тиждень.

Ваш часовий пояс: GMT + 2 Години

Нова тема   Відповісти