Десяте королівство (Серії 1-5) / The 10th Kingdom (Episodes 1-5) (2000) Remux 1080p 2хUkr/Eng | Sub Eng

Нові коментарі

Нова тема   Відповісти
Автор Повідомлення
staf777 
Відео Гуртом - підтримка та поширення
Відео Гуртом - підтримка та поширення


З нами з: 16.11.16
Востаннє: 02.12.20
Повідомлень: 4563

2017-01-25 04:25  
Десяте королівство (Серії 1-5) / The 10th Kingdom (Episodes 1-5) (2000) Remux 1080p 2хUkr/Eng | Sub Eng

Десяте королівство (Серії 1-5) / The 10th Kingdom (Episodes 1-5) (2000) Remux 1080p 2хUkr/Eng | Sub Eng
Оригінальний постер

Десяте королівство (Серії 1-5) / The 10th Kingdom (Episodes 1-5) (2000) Remux 1080p 2хUkr/Eng | Sub Eng
Жанр: сімейний, фентезі, пригодницький, комедія, детектив, екшн, мелодрама, романтичний
Країна: Велика Британія, Німеччина, США



Кінокомпанія: Babelsberg Film und Fernsehen, Carnival Film & Television, Hallmark Entertainment, NBC Studios, Production Line
Режисер: Девід Карсон / David Carson
Актори: Кімберлі Вільямс-Пейслі / Kimberly Williams-Paisley, Скотт Коен / Scott Cohen, Джон Ларрокет / John Larroquette, Діана Вейст / Dianne Wiest, Деніел Лапейн / Daniel Lapaine, Ед О’Ніл / Ed O'Neill, Рутґер Гауер / Rutger Hauer та інші

Сюжет:
Казкова пригода зачарованого принца і шляхетної дівчини, яка відбувається у світах, з'єднаних магічними дзеркалами-порталами. Все почалося в момент, коли зла королева обміняла тілами спадкоємця четвертого королівства та собаку, а той втік магічним дзеркалом у сучасний Нью-Йорк. Там він натрапляє на Вірджинію та її батька Тоні. Але коли вони спробували втекти у світ принца, Вірджинію викрали Тролі, а Тоні із спадкоємцем трону, Венделом, опинилися у в'язниці. Тим часом зла королева готує коронацію фальшивого наставника, щоб заволодіти цілим королівством і помститися Білосніжці...


Тривалість: 1 серія: 01:25:00 (цілком серій: 5)
Якість: Remux 1080p
Відео:
кодек:
розмір кадру: 1920x1080
бітрейт: ~ 20317 кб/с

Аудіо # 1:
мова: українська
переклад: багатоголосий закадровий
кодек: 2.0
бітрейт: 192 кб/с

Аудіо # 2:
мова: українська
переклад: багатоголосий закадровий
кодек: 2.0
бітрейт: 192 кб/с

Аудіо # 3:
мова: англійська
переклад: оригінал
кодек: 5.1
бітрейт: 448 кб/с

Субтитри:
мова: англійська
тип: пререндерні
формат: PGS
Info
General
Unique ID : 224965786654407911010856467357505254780 (0xA93ED5A1A9CADFCEA1D48BFC0A19757C)
Complete name : H:\» HD українською » Серіали в HD\Фантастика\The 10th Kingdom (Episodes 1-5) (2000) [2xUkr,Eng] Remux 1080p [Hurtom]\The 10th Kingdom E03 (2000) [2xUkr,Eng] Remux 1080p [Hurtom].
Format :
Format version : Version 4 / Version 2
File size : 12.8 GiB
Duration : 1 h 25 min
Overall bit rate mode : Variable
Overall bit rate : 21.4 Mb/s
Movie name : The 10th Kingdom E03 (2000) [2xUkr,Eng] Remux 1080p [Hurtom]
Encoded date : UTC 2017-01-25 12:31:05
Writing application : v9.8.0 ('Kuglblids') 64bit
Writing library : libebml v1.3.4 + v1.4.5

Video
ID : 1
Format : AVC
Format/Info : Advanced Video Codec
Format profile : [email protected]
Format settings, CABAC : Yes
Format settings, ReFrames : 3 frames
Codec ID : V_MPEG4/ISO/AVC
Duration : 1 h 25 min
Bit rate mode : Variable
Bit rate : 20.1 Mb/s
Maximum bit rate : 24.0 Mb/s
Width : 1 920 pixels
Height : 1 080 pixels
Display aspect ratio : 16:9
Frame rate mode : Constant
Frame rate : 25.000 FPS
Standard : NTSC
Color space : YUV
Chroma subsampling : 4:2:0
Bit depth : 8 bits
Scan type : Progressive
Bits/(Pixel*Frame) : 0.387
Stream size : 12.0 GiB (94%)
Title : Remux 1080p [Hurtom]
Default : Yes
Forced : No
Color range : Limited
Color primaries : BT.709
Transfer characteristics : BT.709
Matrix coefficients : BT.709

Audio #1
ID : 2
Format : AC-3
Format/Info : Audio Coding 3
Mode extension : CM (complete main)
Format settings, Endianness : Big
Codec ID : A_AC3
Duration : 1 h 25 min
Bit rate mode : Constant
Bit rate : 192 kb/s
Channel(s) : 2 channels
Channel positions : Front: L R
Sampling rate : 48.0 kHz
Frame rate : 31.250 FPS (1536 spf)
Bit depth : 16 bits
Compression mode : Lossy
Stream size : 117 MiB (1%)
Title : [UA-MVO-НЛО-ТВ]
Language : Ukrainian
Default : No
Forced : Yes

Audio #2
ID : 3
Format : AC-3
Format/Info : Audio Coding 3
Mode extension : CM (complete main)
Format settings, Endianness : Big
Codec ID : A_AC3
Duration : 1 h 25 min
Bit rate mode : Constant
Bit rate : 192 kb/s
Channel(s) : 2 channels
Channel positions : Front: L R
Sampling rate : 48.0 kHz
Frame rate : 31.250 FPS (1536 spf)
Bit depth : 16 bits
Compression mode : Lossy
Stream size : 117 MiB (1%)
Title : [UA-MVO-ICTV]
Language : Ukrainian
Default : Yes
Forced : Yes

Audio #3
ID : 4
Format : AC-3
Format/Info : Audio Coding 3
Mode extension : CM (complete main)
Format settings, Endianness : Big
Codec ID : A_AC3
Duration : 1 h 25 min
Bit rate mode : Constant
Bit rate : 448 kb/s
Channel(s) : 6 channels
Channel positions : Front: L C R, Side: L R, LFE
Sampling rate : 48.0 kHz
Frame rate : 31.250 FPS (1536 spf)
Bit depth : 16 bits
Compression mode : Lossy
Stream size : 274 MiB (2%)
Title : [Original]
Language : English
Default : No
Forced : No

Audio #4
ID : 5
Format : AC-3
Format/Info : Audio Coding 3
Mode extension : CM (complete main)
Format settings, Endianness : Big
Codec ID : A_AC3
Duration : 1 h 25 min
Bit rate mode : Constant
Bit rate : 448 kb/s
Channel(s) : 2 channels
Channel positions : Front: L R
Sampling rate : 48.0 kHz
Frame rate : 31.250 FPS (1536 spf)
Bit depth : 16 bits
Compression mode : Lossy
Stream size : 274 MiB (2%)
Title : |Isolated musical score track|
Language : English
Default : No
Forced : No

Text
ID : 6
Format : PGS
Muxing mode : zlib
Codec ID : S_HDMV/PGS
Codec ID/Info : Picture based subtitle format used on BDs/HD-DVDs
Duration : 1 h 25 min
Bit rate : 19.5 kb/s
Count of elements : 3586
Stream size : 11.9 MiB (0%)
Default : Yes
Forced : No
Скріншоти



Джерело: &
Подяки за українські доріжки: 1) ratbol, bambulla - запис з ТБ, voin747 - зведення; 2) Konfucius
Особиста оцінка: 0 - не дивився
Десяте королівство (Серії 1-5) / The 10th Kingdom (Episodes 1-5) (2000) Remux 1080p 2хUkr/Eng | Sub Eng




Золотий реліз (завантажене не впливає на рейтинг)
 Трекер:    Зареєстрований   

Завантажити / скачати серіал українською



відео для новачків



 Зареєстрований:   2017-01-25 18:58
 Розмір:   67.02 GB 
 Оцінка серіалу:   10/10 (Голосів: 19)
   
boroznaya 
Попереджень: 1
Попереджень: 1 


З нами з: 02.11.12
Востаннє: 01.12.20
Повідомлень: 2938

2017-01-25 10:17  
Ніхто не планує реліз в avi? Це для мене занадто великий розмір.
Electroz 
Відео Гуртом - підтримка та поширення
Відео Гуртом - підтримка та поширення


З нами з: 18.09.14
Востаннє: 01.12.20
Повідомлень: 4217

2017-01-25 10:45  
boroznaya
Давно є, але . https://toloka.to/t52540

boroznaya 
Попереджень: 1
Попереджень: 1 


З нами з: 02.11.12
Востаннє: 01.12.20
Повідомлень: 2938

2017-01-25 14:08  
Electroz написано:
https://toloka.to/t52540

Спасибі. Для перегляду допустимо, а от для колекції хотілось би .

Bod_zik99 
VIP


З нами з: 28.12.13
Востаннє: 02.12.20
Повідомлень: 1442

2017-01-25 15:29  
Улюблений міні-серіал дитинства.
igor911 
Модератор відео


З нами з: 18.01.08
Востаннє: 01.12.20
Повідомлень: 15083

2017-01-25 20:33  
staf777, а навіщо за замовчуванням виставлена доріжка з ICTV? У ній якість гірша (старий запис), ніж з НЛО ТБ.
staf777 
Відео Гуртом - підтримка та поширення
Відео Гуртом - підтримка та поширення


З нами з: 16.11.16
Востаннє: 02.12.20
Повідомлень: 4563

2017-01-25 20:40  
igor911
Мені більш переклад ICTV понравився тому і виставив

Влад_1234567 
Новенький


З нами з: 31.03.12
Востаннє: 02.12.20
Повідомлень: 6

2017-09-07 16:13  
staf777 написано:
Мені більш переклад ICTV понравився тому і виставив


Погоджуюся на всі 100!
НЛО.TV - взагалі не те)))

Віктор Багряний 
VIP


З нами з: 20.08.12
Востаннє: 06.09.20
Повідомлень: 398

2017-12-05 08:02  
staf777
Цитата:
понравився

сподобався

vovang6 
Поважний учасник


З нами з: 27.08.12
Востаннє: 01.12.20
Повідомлень: 223

2017-12-05 15:08  
Коли був малий то дивився, цікавий серіал.
Сашко_Панса 
Частий відвідувач


З нами з: 10.12.16
Востаннє: 24.10.20
Повідомлень: 27

2018-06-29 11:03  
Роздайте, будь ласка! Happy))
staf777 
Відео Гуртом - підтримка та поширення
Відео Гуртом - підтримка та поширення


З нами з: 16.11.16
Востаннє: 02.12.20
Повідомлень: 4563

2018-07-05 18:23  
Віктор Багряний
вибачайте тільки вчу укр мову

boombyte 
Поважний учасник


З нами з: 12.04.14
Востаннє: 30.11.20
Повідомлень: 177

2019-02-21 17:13  
Ніколи не пізно).
Дякую за серіал. Може завантажу якось.

cornucopia 
Новенький


З нами з: 22.05.20
Востаннє: 30.11.20
Повідомлень: 6

2020-05-28 12:07  
Ваш часовий пояс: GMT + 2 Години

Нова тема   Відповісти