Девід Бові: Останні п'ять років / David Bowie: The Last Five Years (2017) Eng | Sub Ukr/Eng

Нові коментарі

Нова тема   Відповісти
Автор Повідомлення
k_bx 
Новенький


З нами з: 26.05.15
Востаннє: 20.05.19
Повідомлень: 4

2017-01-25 02:57  
Девід Бові: Останні п'ять років / David Bowie: The Last Five Years (2017) Eng | Sub Ukr/Eng

Девід Бові: Останні п'ять років / David Bowie: The Last Five Years (2017) Eng | Sub Ukr/Eng


Жанр: rockumentary, документальний, музичний
Країна: Великобританія



Кінокомпанія: BBC Two
Режисер: Френсіс Уотлі
Актори: Девід Бові, Тоні Вісконті, Тоні Базіл, Донні Маккаслін, Індрані Пал-Чадурі, Джи Кей Рейд, Маріа Шнайдер

Сюжет:
Документальний фільм "Девід Бові: Останні п'ять років" режисера Френсіса Уотлі вийшов на телеканалі BBC Two за три дні до першої річниці смерті співака, що помер у віці 69 років.

В фільмі показано кадри зі світового турне A Reality Tour в 2003-04 роках, а також розповідається про останні чотири роки життя артиста. Це продовження фільму 2013 року "Девід Бові: П'ять років" - в тому ж стилі, але зі зміненою концепцією.

Режисер кліпу "Lazarus" Йохан Ренк у новому фільмі розповідає, що співак дізнався про те, що його хвороба не піддається лікуванню, коли працював над кліпом до цієї пісні. Однак, Ренк каже, що відео, в якому Бові лежить на лікарняному ліжку із пов'язкою на обличчі і ґудзиками на місці очей, було не про хворобу співака. "Для мене це більше пов'язано із біблейським аспектом, розумієте... людина, що повстає з мертвих. Це не мало нічого спільного із його хворобою", - пояснив він.

Додаткова інформація: Переклад - українські субтитри (зовнішні, автор - Марина Машкіна) + англійські субтитри.


Тривалість: 01:29:45
Якість:
Відео:
кодек:
розмір кадру: 1280 x 720
бітрейт: 2250 кб/с

Аудіо:
мова: англійська
переклад: оригінал
кодек: 2.0
бітрейт: 192 кб/с

Субтитри:
мова: українська
тип: програмні (м'які)
формат: *.srt
Скріншоти



МедіаІнфо

General
Unique ID : 198825084595570579441478911059346581602 (0x959451836F6F9E5EA3EC0232C47FE862)
Complete name : /Users/kb/Downloads/David Bowie - The Last Five Years - 2017 - BBC 2 (720p) Ukr sub/David Bowie - 2017-01-07 - The Last Five Years (BBC) (720p).
Format :
Format version : Version 2
File size : 1.53 GiB
Duration : 1h 29mn
Overall bit rate : 2 433 Kbps
Encoded date : UTC 2017-01-18 05:39:15
Writing application : v4.4.0 ('Die Wiederkehr') сборка от Oct 31 2010 21:52:48
Writing library : libebml v1.0.0 + v1.0.0

Video
ID : 1
Format : AVC
Format/Info : Advanced Video Codec
Format profile : [email protected]
Format settings, CABAC : Yes
Format settings, ReFrames : 5 frames
Codec ID : V_MPEG4/ISO/AVC
Duration : 1h 29mn
Bit rate : 2 250 Kbps
Width : 1 280 pixels
Height : 720 pixels
Display aspect ratio : 16:9
Frame rate mode : Constant
Frame rate : 25.000 fps
Color space : YUV
Chroma subsampling : 4:2:0
Bit depth : 8 bits
Scan type : Progressive
Bits/(Pixel*Frame) : 0.098
Stream size : 1.37 GiB (90%)
Writing library : core 146
Encoding settings : cabac=1 / ref=5 / deblock=1:0:0 / analyse=0x3:0x113 / me=hex / subme=7 / psy=0 / mixed_ref=1 / me_range=16 / chroma_me=1 / trellis=1 / 8x8dct=1 / cqm=0 / deadzone=21,11 / fast_pskip=1 / chroma_qp_offset=0 / threads=7 / lookahead_threads=1 / sliced_threads=0 / nr=0 / decimate=1 / interlaced=0 / paff=0 / bluray_compat=0 / constrained_intra=0 / bframes=3 / b_pyramid=2 / b_adapt=1 / b_bias=0 / direct=1 / weightb=1 / open_gop=0 / weightp=2 / keyint=125 / keyint_min=12 / scenecut=0 / intra_refresh=0 / rc_lookahead=60 / rc=abr / mbtree=1 / bitrate=2250 / ratetol=1.0 / qcomp=0.60 / qpmin=0 / qpmax=69 / qpstep=4 / vbv_maxrate=2812 / vbv_bufsize=4500 / nal_hrd=none / filler=0 / ip_ratio=1.00 / aq=2:1.00
Language : English
Default : Yes
Forced : No

Audio
ID : 2
Format : AC-3
Format/Info : Audio Coding 3
Mode extension : CM (complete main)
Format settings, Endianness : Big
Codec ID : A_AC3
Duration : 1h 29mn
Bit rate mode : Constant
Bit rate : 192 Kbps
Channel(s) : 2 channels
Channel positions : Front: L R
Sampling rate : 48.0 KHz
Frame rate : 31.250 fps (1536 spf)
Bit depth : 16 bits
Compression mode : Lossy
Delay relative to video : -85ms
Stream size : 123 MiB (8%)
Language : English
Default : Yes
Forced : No
Особиста оцінка: 10 - без зайвих вагань рекомендую всім!


Авторський реліз (завантажувати можна без реєстрації)
 Трекер:    Зареєстрований   

Завантажити / скачати фільм українською



відео для новачків



 Зареєстрований:   2017-01-25 02:57
 Розмір:   1.53 GB 
 Оцінка фільму:   8.5/10 (Голосів: 6)
   
11FrYkT 
Модератор відео


З нами з: 20.02.11
Востаннє: 04.12.20
Повідомлень: 7051

2017-01-25 18:33  
k_bx написано:

Режисер: Francis Whately
Актори: David Bowie, Tony Visconti, Toni Basil, Donny McCaslin, Indrani Pal-Chaudhuri, GK Reid, Maria Schneider

має бути українською
Цитата:
розмір кадру: 1280 x 720

скріншоти не відповідають вказаному розміру

додайте звіт МедіаІнфо
Цитата:
David Bowie - 2017-01-07 - The Last Five Years (BBC) (720p)_en.srt

також я так розумію тут присутні анг саби, тому опишіть їх в заголовку і тех параметрах
Цитата:
Останній раз роздавалося (Ніколи)
Завантажують: [ 5 ]

Станьте на роздачу

k_bx 
Новенький


З нами з: 26.05.15
Востаннє: 20.05.19
Повідомлень: 4

2017-01-25 22:37  
11FrYkT

на роздачу став, все інше сьогодні виправлю, дякую

Додано через 2 години 55 хвилин 8 секунд:

11FrYkT

перевірте, чи я все вірно виправив. Дякую!

Ваш часовий пояс: GMT + 2 Години

Нова тема   Відповісти