Придорожній заклад (Бар край дороги; Бар при дорозі) / Red Rock West (1992) 3xUkr/Eng | Sub Eng

Нові коментарі

Нова тема   Відповісти
Автор Повідомлення
Anonymous 







2017-01-24 19:19  
Придорожній заклад / Бар край дороги / Бар при дорозі / Red Rock West (1992) 3xUkr/Eng | Sub Eng



Оригінальні постер та обкладинка:




повнорозмірні зображення відкриються по кліку (з натиснутим CTRL чи кліком середньою кнопкою мишки - у новій вкладці)


Жанр: кримінальний, трилер, драма, нео-нуар
Країна: США



Кінокомпанія: PolyGram Filmed Entertainment, Propaganda Films, Red Rock Films
Режисер: Джон Дал / John Dahl
Актори: Ніколас Кейдж / Nicolas Cage, Лара Флінн Бойл / Lara Flynn Boyle, Дж.Т. Волш / J.T. Walsh, Денніс Гоппер / Dennis Hopper, Двайт Йоакам / Dwight Yoakam та інші

Сюжет:
Майкл — колишній морський піхотинець. У його кишенях порожньо, а єдиний шанс знайти роботу — заїхати до бару при дорозі Red Rock West. Цього ж самого ранку місцевий шериф Вейн, насправді ж злочинець-втікач, що вкрав разом з дружиною Сьюзен два мільйони доларів, і якого розшукує ФБР, очікує прибуття найманого вбивці з Техасу, найнятого для усунення дружини.
Побачивши техаські номери машини Майкла, Вейн вирішує, що дочекався кілера і вручає Майклу $5000 авансу за майбутню роботу. Майкл прямує до Сьюзен, щоб попередити її і сховатися з готівкою. Але, на його здивування, Сьюзен подвоює суму, щоб він вбив Вейна. Майкл погоджується, але відчуває, що час змиватися. А тим часом до містечка під'їжджає справжній найманий вбивця Лейн...


Цікаві факти про фільм

* Фільм відомий також під назвами "Придорожній заклад" та "На захід від Червоної Скелі".

* Стрічку було знято у 1992 році в Арізоні з бюджетом $7 млн. Права на внутрішній прокат були продані Columbia Tri-Star за $ 2,5 млн., а права на іноземниий прокат - на Manifesto Films, дочірній студії Polygram Filmed Entertainment. Пробні зйомки фільму не були вдалими і Пітер Грейвс, незалежний консультант, який очолював відділ маркетингу на Polygram, сказав: "Фільм не підпадає повністю під будь-яку товарну категорію. І чи зможуть сприйняти глядачі такий вестерн у стилі нуар?." Один із продюсерів фільму запропонував представити фільм поза конкурсом на кінофестивалі "Санденс". Columbia продала стрічку одній з кабельних мереж і вона було показано сім разів на HBO восени 1993.

* Фільм мав непоганий успіх у кінотеатрах Німеччини, в Парижі і Лондоні влітку 1993 року. Пірс Хандлінг, директор кінофестивалю в Торонто, побачив фільм в Парижі і вирішив показати його на власному фестивалі у вересні. Білл Беннінг, який володів Roxie Cinema і Roxie Releasing в Сан-Франциско, побачив фільм в Торонто і вирішив, що стрічці вдасться завоювати і американську театральну аудиторію. Він узяв її в січні 1994, щоб дізнатися, хто володіє правами на фільм. Фільм вже показувався на HBO і повинен був вийти на відео в лютому. Беннінг розпочав показ "Бару при дорозі" 28 січня 1994, коли він побив рекорди касових зборів у 8 кінотеатрах міста. Потім його було показано в Лос-Анджелесі та Нью-Йорку.

* Музика до кінофільму представлена багатьма відомими виконавцями та музикантами, у тому числі Джоні Кеш, Шанайя Твейн, Тобі Кейс, The Kentucky Headhunters і Семмі Кершау. Відомий виконавець кантрі Двайт Йоакам під час зйомок написав пісню "Тисяча миль нізвідки" для титрів фільму і поки музикант знімався у фільмі (він зіграв водія вантажівки), його пісня стала хітом і увійшла до Top 10 в США.





Рейтинг MPAA: R - особам до 17 років обов'язкова присутність батьків або дорослого опікуна
Вікова категорія: 16+

Тривалість: 01:38:39
Якість:
Відео:
кодек:
розмір кадру: 704 х 400
бітрейт: 1907 Кбіт/с

Аудіо # 1:
мова: українська
переклад: багатоголосий закадровий
кодек: 2.0
бітрейт: 192 Кбіт/с

Аудіо # 2:
мова: українська
переклад: багатоголосий закадровий
кодек: 2.0 [стерео]
бітрейт: 192 Кбіт/с

Аудіо # 3:
мова: українська
переклад: багатоголосий закадровий
ролі озвучили: Ніколас Кейдж — Олег Стальчук, Денніс Гоппер — Володимир Терещук, Юрій Гребельник і Наталя Поліщук?
кодек: 2.0
бітрейт: 192 Кбіт/с
примітка: з 01:16:45 присутня 2-х хвилинна вставка від НЛО.ТБ

Аудіо # 4:
мова: англійська
переклад: оригінал
кодек: 2.0
бітрейт: 192 Кбіт/с

Субтитри :
мова: англійська --> завантажити окремо
тип: програмні (м'які)
формат: *.srt
Info
Код:
General
Complete name               : Red Rock West (1992) [3xUkr,Eng] [Hurtom].avi
Format                      : AVI
Format/Info                 : Audio Video Interleave
File size                   : 1.86 GiB
Duration                    : 1 h 38 min
Overall bit rate            : 2 699 kb/s
Movie name                  : Придорожній заклад / Бар край дороги / Бар при дорозі / Red Rock West (1992) [3xUkr,Eng] [Hurtom]
Genre                       : трилер, драма, кримінал, нео-нуар
Writing application         : VirtualDubModUkr 1.5.10.2 (build 2542/release)
Writing library             : VirtualDubMod build 2542/release
Copyright                   : Hurtom & HQClub
Comment                     : https://toloka.to/t79335 25.04.2018

Video
ID                          : 0
Format                      : MPEG-4 Visual
Format profile              : Advanced [email protected]
Format settings             : BVOP1 / Custom Matrix
Format settings, BVOP       : 1
Format settings, QPel       : No
Format settings, GMC        : No warppoints
Format settings, Matrix     : Custom
Codec ID                    :
Codec ID/Hint               :
Duration                    : 1 h 38 min
Bit rate                    : 1 907 kb/s
Width                       : 704 pixels
Height                      : 400 pixels
Display aspect ratio        : 16:9
Frame rate                  : 23.976 (24000/1001) FPS
Color space                 : YUV
Chroma subsampling          : 4:2:0
Bit depth                   : 8 bits
Scan type                   : Progressive
Compression mode            : Lossy
Bits/(Pixel*Frame)          : 0.282
Stream size                 : 1.31 GiB (71%)
Writing library             : 65

Audio #1
ID                          : 1
Format                      : AC-3
Format/Info                 : Audio Coding 3
Codec ID                    : 2000
Duration                    : 1 h 38 min
Bit rate mode               : Constant
Bit rate                    : 192 kb/s
Channel(s)                  : 2 channels
Channel positions           : Front: L R
Sampling rate               : 48.0 kHz
Frame rate                  : 31.250 FPS (1536 SPF)
Bit depth                   : 16 bits
Compression mode            : Lossy
Stream size                 : 135 MiB (7%)
Alignment                   : Split accross interleaves
Interleave, duration        : 42  ms (1.00 video frame)
Interleave, preload duratio : 500  ms
Title                       : UKR MVO [NLO.TV]
Service kind                : Complete Main

Audio #2
ID                          : 2
Format                      : AC-3
Format/Info                 : Audio Coding 3
Codec ID                    : 2000
Duration                    : 1 h 38 min
Bit rate mode               : Constant
Bit rate                    : 192 kb/s
Channel(s)                  : 2 channels
Channel positions           : Front: L R
Sampling rate               : 48.0 kHz
Frame rate                  : 31.250 FPS (1536 SPF)
Bit depth                   : 16 bits
Compression mode            : Lossy
Stream size                 : 135 MiB (7%)
Alignment                   : Split accross interleaves
Interleave, duration        : 42  ms (1.00 video frame)
Interleave, preload duratio : 500  ms
Title                       : UKR MVO [Volya Cine+]
Service kind                : Complete Main

Audio #3
ID                          : 3
Format                      : AC-3
Format/Info                 : Audio Coding 3
Codec ID                    : 2000
Duration                    : 1 h 38 min
Bit rate mode               : Constant
Bit rate                    : 192 kb/s
Channel(s)                  : 2 channels
Channel positions           : Front: L R
Sampling rate               : 48.0 kHz
Frame rate                  : 31.250 FPS (1536 SPF)
Bit depth                   : 16 bits
Compression mode            : Lossy
Stream size                 : 135 MiB (7%)
Alignment                   : Split accross interleaves
Interleave, duration        : 42  ms (1.00 video frame)
Interleave, preload duratio : 500  ms
Title                       : UKR MVO [Novyj]
Service kind                : Complete Main

Audio #4
ID                          : 4
Format                      : AC-3
Format/Info                 : Audio Coding 3
Codec ID                    : 2000
Duration                    : 1 h 38 min
Bit rate mode               : Constant
Bit rate                    : 192 kb/s
Channel(s)                  : 2 channels
Channel positions           : Front: L R
Sampling rate               : 48.0 kHz
Frame rate                  : 31.250 FPS (1536 SPF)
Bit depth                   : 16 bits
Compression mode            : Lossy
Stream size                 : 135 MiB (7%)
Alignment                   : Split accross interleaves
Interleave, duration        : 42  ms (1.00 video frame)
Interleave, preload duratio : 500  ms
Service kind                : Complete Main



Джерело: &
українські доріжки: Bohdan237 - запис з НЛО.ТБ, Sando7 - запис з Cine+, Merdiff - запис з Нового; Arsenfpu - синхронізація НЛО.ТБ, Cine+, вставка до Нового, Lan - синхронізація (Новий).
українізований постер - Konfucius;
фільмографії акторів - Віктор

ЗАЛИШАЙТЕСЬ ЯКОМОГА ДОВШЕ НА РОЗДАЧІ
ЗАВАНТАЖИВ САМ - ДАЙ ЗАВАНТАЖИТИ ІНШИМ!


Срібний реліз (на рейтинг впливає 50% завантаженого)
 Трекер:    Зареєстрований   

Завантажити / скачати фільм українською



відео для новачків



 Зареєстрований:   2018-04-25 20:19
 Розмір:   1.86 GB 
 Оцінка фільму:   6.5/10 (Голосів: 28)
   
Anonymous 







2018-04-25 20:38  
Реліз оновлено - додано озвучення з НЛО.ТБ та Cine+, в доріжці з Нового неозвучений субтитрований фрагмент замінено вставкою з НЛО.ТБ.
geroyasfalta 
Свій


З нами з: 20.06.11
Востаннє: 18.04.19
Повідомлень: 79

2018-05-17 21:49  
Дякую за НЛО і Сіне+
Ваш часовий пояс: GMT + 2 Години

Нова тема   Відповісти