День незалежності 2: Відродження / Independence Day: Resurgence (2016) Remux 1080p Ukr/Eng | Sub Ukr/Eng

Нові коментарі

Нова тема   Відповісти
Автор Повідомлення
staf777 
Відео Гуртом - підтримка та поширення
Відео Гуртом - підтримка та поширення


З нами з: 16.11.16
Востаннє: 16.08.17
Повідомлень: 522

2017-01-24 17:13  
День незалежності 2: Відродження / Independence Day: Resurgence (2016) Remux 1080p Ukr/Eng | Sub Ukr/Eng

День незалежності 2: Відродження / Independence Day: Resurgence (2016) Remux 1080p Ukr/Eng | Sub Ukr/Eng
Оригінальний постер

День незалежності 2: Відродження / Independence Day: Resurgence (2016) Remux 1080p Ukr/Eng | Sub Ukr/Eng
Жанр: фантастика, бойовик, пригодницький
Країна: США



Кінокомпанія: Сentropolis Entertainment, Stereo D, Twentieth Century Fox
Режисер: Роланд Еммеріх / Roland Emmerich
Актори: Ліам Гемсворт / Liam Hemsworth, Джефф Ґолдблюм / Jeff Goldblum, Білл Пуллман / Bill Pullman, Майка Монро / Maika Monroe, Джої Кінґ / Joey King, Вільям Фіхтнер / William Fichtner, Шарлотта Ґенсбурґ / Charlotte Gainsbourg, Вівіка А. Фокс / Vivica A. Fox, Села Вард / Sela Ward, Брент Спайнер / Brent Spiner, Джадд Хірш / Judd Hirsch та ін

Сюжет:
Сиквел однієї з найпопулярніших стрічок-катастроф 90-их про вторгнення інопланетян на планету Земля "День незалежності" Роланда Еммеріха. Режисер "Ґодзілли", "2012" і "Післязавтра" через двадцять років повернувся до знаменитої історії. Після подій минули два десятиріччя. Людство, адаптувавши технології прибульців, створило глобальну оборонну систему. Деякі військові сили були розміщені на Марсі, Місяці та Реї. До своєї остаточної поразки 20 років тому інопланетяни встигли послати у космос сигнал лиха. Тепер в сторону Землі прямує більш потужний і численний флот. Чи зможе на цей раз винахідливість кількох осіб врятувати цивілізацію?


Тривалість: 01:59:44
Якість: Remux 1080p
Відео:
кодек:
розмір кадру: 1920x1080
бітрейт: 25,8 Мб/с

Аудіо # 1:
мова: українська
переклад: професійний дубльований
кодек: 5.1
бітрейт: 448 кб/с

Аудіо # 2:
мова: англійська
переклад: оригінал
кодек: -HD MA 7.1
бітрейт: 5023 кб/с

Субтитри # 1:
мова: українська
тип: програмні (м'які)
формат: *.srt

Субтитри # 2-3:
мова: англійська (форсовані, повні)
тип: програмні (м'які)
формат: *.srt
Info
General
Unique ID : 184874604745621602234313434191097443304 (0x8B158DC0D506277098CBF442AF7B33E8)
Complete name : H:\» HD українською » Фільми в HD\Independence Day Resurgence (2016) [Ukr,Eng sub.Ukr,Eng] Remux 1080p [Hurtom].
Format :
Format version : Version 4 / Version 2
File size : 26.2 GiB
Duration : 1 h 59 min
Overall bit rate mode : Variable
Overall bit rate : 31.3 Mb/s
Movie name : Independence Day: Resurgence (2016) [Ukr,Eng sub.Ukr,Eng] Remux 1080p [Hurtom]
Encoded date : UTC 2017-01-24 20:16:45
Writing application : mkvmerge v9.8.0 ('Kuglblids') 64bit
Writing library : libebml v1.3.4 + libmatroska v1.4.5
Cover : Yes
Attachments : Cover - Independence.Day.Resurgence.png

Video
ID : 1
Format : AVC
Format/Info : Advanced Video Codec
Format profile : High@L4.1
Format settings, CABAC : Yes
Format settings, ReFrames : 2 frames
Codec ID : V_MPEG4/ISO/AVC
Duration : 1 h 59 min
Bit rate mode : Variable
Bit rate : 25.8 Mb/s
Width : 1 920 pixels
Height : 1 080 pixels
Display aspect ratio : 16:9
Frame rate mode : Constant
Frame rate : 23.976 (24000/1001) FPS
Color space : YUV
Chroma subsampling : 4:2:0
Bit depth : 8 bits
Scan type : Progressive
Bits/(Pixel*Frame) : 0.519
Stream size : 21.6 GiB (83%)
Title : Independence Day: Resurgence (2016) Remux 1080p
Language : English
Default : Yes
Forced : No

Audio #1
ID : 2
Format : AC-3
Format/Info : Audio Coding 3
Mode extension : CM (complete main)
Format settings, Endianness : Big
Codec ID : A_AC3
Duration : 1 h 59 min
Bit rate mode : Constant
Bit rate : 448 kb/s
Channel(s) : 6 channels
Channel positions : Front: L C R, Side: L R, LFE
Sampling rate : 48.0 kHz
Frame rate : 31.250 FPS (1536 spf)
Bit depth : 16 bits
Compression mode : Lossy
Stream size : 384 MiB (1%)
Title : [UA-DUB]
Language : Ukrainian
Default : Yes
Forced : Yes

Audio #2
ID : 3
Format :
Format/Info : Digital Theater Systems
Format profile : MA / ES Matrix / Core
Mode : 16
Format settings, Endianness : Big
Codec ID : A_DTS
Duration : 1 h 59 min
Bit rate mode : Variable / Constant / Constant
Bit rate : 5 023 kb/s / 1 509 kb/s / 1 509 kb/s
Channel(s) : 8 channels / 7 channels / 6 channels
Channel positions : Front: L C R, Side: L R, Back: L R, LFE / Front: L C R, Side: L R, Back: C, LFE / Front: L C R, Side: L R, LFE
Sampling rate : 48.0 kHz
Frame rate : 93.750 FPS (512 spf)
Bit depth : 24 bits
Compression mode : Lossless / Lossy / Lossy
Stream size : 4.20 GiB (16%)
Title : [ORIGINAL]
Language : English
Default : No
Forced : No

Text #1
ID : 4
Format : UTF-8
Codec ID : S_TEXT/UTF8
Codec ID/Info : UTF-8 Plain Text
Duration : 1 h 58 min
Bit rate : 95 b/s
Count of elements : 1733
Stream size : 82.9 KiB (0%)
Title : Full
Language : Ukrainian
Default : No
Forced : No

Text #2
ID : 5
Format : UTF-8
Codec ID : S_TEXT/UTF8
Codec ID/Info : UTF-8 Plain Text
Duration : 7 s 464 ms
Bit rate : 114 b/s
Count of elements : 3
Stream size : 107 Bytes (0%)
Title : Forced
Language : English
Default : No
Forced : No

Text #3
ID : 6
Format : UTF-8
Codec ID : S_TEXT/UTF8
Codec ID/Info : UTF-8 Plain Text
Duration : 1 h 49 min
Bit rate : 62 b/s
Count of elements : 1711
Stream size : 50.3 KiB (0%)
Title : Full
Language : English
Default : No
Forced : No

Menu
00:00:00.000 : en:Chapter 01
00:05:37.336 : en:Chapter 03
00:09:15.471 : en:Chapter 05
00:14:06.720 : en:Chapter 07
00:19:40.470 : en:Chapter 09
00:22:59.002 : en:Chapter 11
00:27:10.253 : en:Chapter 13
00:31:37.645 : en:Chapter 15
00:39:11.974 : en:Chapter 17
00:43:41.118 : en:Chapter 19
00:47:46.613 : en:Chapter 21
00:52:32.190 : en:Chapter 23
00:59:10.255 : en:Chapter 25
01:02:00.133 : en:Chapter 27
01:07:12.069 : en:Chapter 29
01:09:54.815 : en:Chapter 31
01:13:11.720 : en:Chapter 33
01:18:27.452 : en:Chapter 35
01:22:45.502 : en:Chapter 37
01:27:51.808 : en:Chapter 39
01:32:36.717 : en:Chapter 41
01:39:38.138 : en:Chapter 43
01:47:20.142 : en:Chapter 45
01:50:36.713 : en:Chapter 47
01:59:43.926 : en:Chapter 49
Скріншоти




Джерело: &
Особиста оцінка: 8 - мені сподобалося
День незалежності 2: Відродження / Independence Day: Resurgence (2016) Remux 1080p Ukr/Eng | Sub Ukr/Eng


Золотий реліз (завантажене не впливає на рейтинг)
 Трекер:    Зареєстрований   

Завантажити / скачати фільм українською



відео для новачків



 Зареєстрований:   2017-01-25 02:36
 Розмір:   26.17 GB 
 Оцінка фільму:   9.5/10 (Голосів: 6)
   
Ваш часовий пояс: GMT + 2 Години

Нова тема   Відповісти