Ларрі Краун / Larry Crowne (2011) Remux 1080p 2xUkr/Eng | Sub Eng

Нові коментарі

Нова тема   Відповісти
Автор Повідомлення
staf777 
Відео Гуртом - підтримка та поширення
Відео Гуртом - підтримка та поширення


З нами з: 16.11.16
Востаннє: 27.01.20
Повідомлень: 3366

2017-01-23 19:13  
Ларрі Краун / Larry Crowne (2011) Remux 1080p 2xUkr/Eng | Sub Eng

Ларрі Краун / Larry Crowne (2011) Remux 1080p 2xUkr/Eng | Sub Eng


Жанр: драма, мелодрама, комедія
Країна: США



Кінокомпанія: Universal Pictures
Режисер: Том Хенкс
Актори: Том Хенкс, Джулія Робертс, Сара Махоні, Роксана Ортеґа, Тіна Хуанг

Сюжет:
До свого звільнення привітний і люб'язний Ларрі Краун був процвітаючим командним керівником великої компанії, в якій він працював після служби на флоті. Під вагою іпотеки і будучи в неясності від того, що робити з вільними днями, Ларрі вирушає у місцевий коледж, щоб почати все спочатку.


Тривалість: 01:38:36
Якість: Remux 1080p
Відео:
кодек:
розмір кадру: 1920x1080
бітрейт: 27,9 Мб/с

Аудіо # 1:
мова: українська
переклад: професійний дубльований | студія ААА-sound
кодек: -HD MA 5.1
бітрейт: 4414 кб/с
Інформація про дубляж:

Ролі дублювали: Том Генкс — Андрій Альохін?, Джулія Робертс — Олена Узлюк, Андрій Твердак, Ірина Грей та інші.
Аудіо # 2:
мова: українська
переклад: професійний дубльований | студія ААА-sound
кодек: 5.1
бітрейт: 448 кб/с

Аудіо # 3:
мова: українська
переклад: багатоголосий закадровий
кодек: 2.0
бітрейт: 192 кб/с

Аудіо # 4:
мова: англійська
переклад: оригінал
кодек: -HD MA 5.1
бітрейт: 3594 кб/с

Субтитри:
мова: англійська
тип: пререндерні
формат: PGS
Info
General
Unique ID : 303165193421526428050412024393995100942 (0xE4137E0E9FC758C486DE474E55E7A30E)
Complete name : E:\Фільми в HD\Комедія\Larry Crowne (2011) Remux 1080p [2xUKR] [ENG] [Hurtom].
Format :
Format version : Version 4 / Version 2
File size : 25.2 GiB
Duration : 1 h 38 min
Overall bit rate mode : Variable
Overall bit rate : 36.6 Mb/s
Movie name : Larry Crowne (2011) Remux 1080p [2xUKR] [ENG] [Hurtom]
Encoded date : UTC 2018-12-14 17:18:51
Writing application : v24.0.0 ('Beyond The Pale') 64-bit
Writing library : libebml v1.3.6 + v1.4.9
Cover : Yes
Attachments : cover.jpg

Video
ID : 1
Format : AVC
Format/Info : Advanced Video Codec
Format profile : [email protected]
Format settings : CABAC / 4 Ref Frames
Format settings, CABAC : Yes
Format settings, ReFrames : 4 frames
Format settings, GOP : M=3, N=24
Codec ID : V_MPEG4/ISO/AVC
Duration : 1 h 38 min
Bit rate mode : Variable
Bit rate : 27.9 Mb/s
Maximum bit rate : 35.0 Mb/s
Width : 1 920 pixels
Height : 1 080 pixels
Display aspect ratio : 16:9
Frame rate mode : Constant
Frame rate : 23.976 (24000/1001) FPS
Standard : NTSC
Color space : YUV
Chroma subsampling : 4:2:0
Bit depth : 8 bits
Scan type : Progressive
Bits/(Pixel*Frame) : 0.562
Stream size : 19.2 GiB (76%)
Title : Larry Crowne (2011) Remux 1080p
Default : Yes
Forced : No
Color range : Limited
Color primaries : BT.709
Transfer characteristics : BT.709
Matrix coefficients : BT.709

Audio #1
ID : 2
Format :
Format/Info : Digital Theater Systems
Format profile : MA / Core
Codec ID : A_DTS
Duration : 1 h 38 min
Bit rate mode : Variable / Constant
Bit rate : 4 414 kb/s / 1 509 kb/s
Channel(s) : 6 channels
Channel positions : Front: L C R, Side: L R, LFE
Sampling rate : 48.0 kHz
Frame rate : 93.750 FPS (512 SPF)
Bit depth : 24 bits
Compression mode : Lossless / Lossy
Stream size : 3.04 GiB (12%)
Title : 'UA DUB' -HD MA 5.1
Language : Ukrainian
Default : Yes
Forced : Yes

Audio #2
ID : 3
Format : AC-3
Format/Info : Audio Coding 3
Codec ID : A_AC3
Duration : 1 h 38 min
Bit rate mode : Constant
Bit rate : 448 kb/s
Channel(s) : 6 channels
Channel positions : Front: L C R, Side: L R, LFE
Sampling rate : 48.0 kHz
Frame rate : 31.250 FPS (1536 SPF)
Bit depth : 16 bits
Compression mode : Lossy
Stream size : 316 MiB (1%)
Title : [UKR-DUB]
Language : Ukrainian
Service kind : Complete Main
Default : No
Forced : No

Audio #3
ID : 4
Format : AC-3
Format/Info : Audio Coding 3
Codec ID : A_AC3
Duration : 1 h 38 min
Bit rate mode : Constant
Bit rate : 192 kb/s
Channel(s) : 2 channels
Channel positions : Front: L R
Sampling rate : 48.0 kHz
Frame rate : 31.250 FPS (1536 SPF)
Bit depth : 16 bits
Compression mode : Lossy
Stream size : 135 MiB (1%)
Title : 1+1
Language : Ukrainian
Service kind : Complete Main
Default : No
Forced : No

Audio #4
ID : 5
Format :
Format/Info : Digital Theater Systems
Format profile : MA / Core
Codec ID : A_DTS
Duration : 1 h 38 min
Bit rate mode : Variable / Constant
Bit rate : 3 594 kb/s / 768 kb/s
Channel(s) : 6 channels
Channel positions : Front: L C R, Side: L R, LFE
Sampling rate : 48.0 kHz
Frame rate : 93.750 FPS (512 SPF)
Bit depth : 24 bits
Compression mode : Lossless / Lossy
Stream size : 2.48 GiB (10%)
Title : 'ORIGINAL' -HD MA 5.1
Language : English
Default : No
Forced : No

Text
ID : 6
Format : PGS
Muxing mode : zlib
Codec ID : S_HDMV/PGS
Codec ID/Info : Picture based subtitle format used on BDs/HD-DVDs
Duration : 1 h 34 min
Bit rate : 40.1 kb/s
Count of elements : 2646
Stream size : 27.0 MiB (0%)
Language : English
Default : No
Forced : No
Скріншоти




За другу доріжку дякую пану vamp69
За запис з 1+1 дякую пану slavik_v_z та пану Arsenfpu за синхронізацію
Джерело: &
Особиста оцінка: 0 - не дивився
ЗАЛИШАЙТЕСЬ ЯКОМОГА ДОВШЕ НА РОЗДАЧІ!

СКАЧАВ САМ - ДАЙ СКАЧАТИ ІНШИМ



Золотий реліз (завантажене не впливає на рейтинг)
 Трекер:    Зареєстрований   

Завантажити / скачати фільм українською



відео для новачків



 Зареєстрований:   2018-12-14 20:11
 Розмір:   25.2 GB 
 Оцінка фільму:   8.6/10 (Голосів: 14)
   
Інші релізи
   Ларрі Краун / Larry Crowne (2011) AVC 2xUkr/Eng | Sub Eng staf777  1 / 0   2.31 GB   2018-12-15 22:16 
   Ларрі Краун / Larry Crowne (2011) 2xUkr/Eng Arsenfpu  5 / 0   2.13 GB   2016-06-18 16:31 
   Ларрі Краун / Larry Crowne (2011) 720р-mini Ukr/Eng | Sub Eng DejaVu  7 / 0   2.33 GB   2011-12-05 14:05 
intrino 
Частий відвідувач


З нами з: 09.06.09
Востаннє: 14.01.20
Повідомлень: 38

2017-01-23 20:53  
чудове кіно!
fixxa 
Свій


З нами з: 18.02.16
Востаннє: 11.01.20
Повідомлень: 138

2017-01-23 22:57  
Том Хенкс круто Джулія ні
kinaxem 
Відео Гуртом - фільмокрай
Відео Гуртом - фільмокрай


З нами з: 21.12.16
Востаннє: 27.01.20
Повідомлень: 489

2017-01-24 08:43  
Варто було додати багатоголоску від 1+1 бо дубляж цей жахливий...
staf777 
Відео Гуртом - підтримка та поширення
Відео Гуртом - підтримка та поширення


З нами з: 16.11.16
Востаннє: 27.01.20
Повідомлень: 3366

2018-12-14 20:15  
Додав доріжку 5.1 та доріжку від 
Ваш часовий пояс: GMT + 2 Години

Нова тема   Відповісти