Плетений чоловік (Плетена людина) [Розширена версія] / The Wicker Man [Unrated] (2006) Remux 1080p 3хUkr/Eng | Sub Eng

Нові коментарі

Нова тема   Відповісти
Останній раз роздавалося Keegan (2017-12-15)
Автор Повідомлення
staf777 
Відео Гуртом - підтримка та поширення
Відео Гуртом - підтримка та поширення


З нами з: 16.11.16
Востаннє: 06.11.17
Повідомлень: 522

2017-01-23 14:58  
Плетений чоловік (Плетена людина) [Розширена версія] / The Wicker Man [Unrated] (2006) Remux 1080p 3хUkr/Eng | Sub Eng

Плетений чоловік (Плетена людина) [Розширена версія] / The Wicker Man [Unrated] (2006) Remux 1080p 3хUkr/Eng | Sub Eng

Українізований та альтернативні постери










повнорозмірні зображення відкриються по кліку (з натиснутим CTRL чи кліком середньою кнопкою мишки - у новій вкладці)


Жанр: жахи, містика, трилер, детектив
Країна: США, Німеччина, Канада



Кінокомпанія: Warner Bros., Alcon Entertainment, Millennium Films
Режисер: Ніл ЛаБут
Актори: Ніколас Кейдж / Nicolas Cage, Еллен Берстін / Ellen Burstyn, Кейт Біган / Kate Beahan, Френсіс Конрой / Frances Conroy, Моллі Паркер / Molly Parker, Лілі Собеські / Leelee Sobieski, Дайан Делано / Diane Delano, Майкл Вайзмен / Michael Wiseman, Еріка-Шейв Гейр / Erika-Shaye Gair, Кріста Кемпбелл / Christa Campbell та інші

Сюжет:
Колишній поліцейський Едвард Маюліс (Ніколас Кейдж) отримує листа від своєї давньої подруги, в якому вона просить знайти її зниклу дочку. Розслідуючи зникнення маленької дівчинки, Едвард потрапляє на дивний острів з дуже дивними людьми і виявляє, що зникнення дівчинки пов'язане з таємним товариством. Незрозумілі символи, моторошні обряди - у всьому цьому доведеться розібратися поліцейському, щоб дізнатися страшну таємницю...

Рімейк однойменного британського класичного фільму 1973 року


Рейтинг MPAA: Unrated (для театральної версії був PG-13)
Вікова категорія: 15+
Тривалість: 1:41:55
Різниця між Театральною та Unrated версіями
Обережно - спойлери !!!, 16+
Якість: Remux 1080p
Відео:
кодек:
розмір кадру: 1920x1080
бітрейт: 15279 Кбіт/с

Аудіо # 1:
мова: українська
переклад: професійний дубльований | студія "Пілот"
ролі дублювали: Ніколас Кейдж — Андрій Самінін, Дмитро Завадський, Олена Узлюк?, Лариса Руснак та інші
кодек: 5.1
бітрейт: 448 кбіт/с

Аудіо # 2:
мова: українська
переклад: багатоголосий закадровий
кодек: 2.0
бітрейт: 192 кбіт/с

Аудіо # 3:
мова: українська
переклад: багатоголосий закадровий
ролі озвучили: Ніколас Кейдж — Олег Стальчук, Ярослав Чорненький і два жіночих голоси
кодек: 2.0
бітрейт: 192 кбіт/с

Аудіо # 4:
мова: англійська
переклад: оригінал
кодек: 5.1
бітрейт: 640 кб/с

Аудіо # 5:
мова: англійська
переклад: коментарі
кодек: 2.0
бітрейт: 192 кб/с

Субтитри # 1:
мова: українська (форсовані, на епізод розширеної версії без озвучення, діалоги з 01:31:03 по 01:33:00)
тип: пререндерні
формат: PGS

Субтитри # 2-3:
мова: англійська (повні, SDH)
тип: пререндерні
формат: PGS
Info
General
Unique ID : 237868734063712530076707227675025264874 (0xB2F3DA0E0952F8759F672E0FC224D0EA)
Complete name : E:\HDCLUB\THE_WICKER_MAN_2006_REMUX_HDCLUB\BDMV\STREAM\The Wicker Man [Unrated] (2006)[3xUkr,Eng sub.Eng] Remux 1080p [Hurtom].
Format :
Format version : Version 4 / Version 2
File size : 12.1 GiB
Duration : 1h 41mn
Overall bit rate : 17.0 Mbps
Movie name : The Wicker Man [Unrated] (2006)[3xUkr,Eng sub.Eng] Remux 1080p [Hurtom]
Encoded date : UTC 2017-01-24 09:11:43
Writing application : mkvmerge v8.5.1 ('Where you lead I will follow') 64bit
Writing library : libebml v1.3.3 + libmatroska v1.4.4
DURATION : 01:40:13.215000000
NUMBER_OF_FRAMES : 1933
NUMBER_OF_BYTES : 9922188
_STATISTICS_WRITING_APP : mkvmerge v8.5.1 ('Where you lead I will follow') 64bit
_STATISTICS_WRITING_DATE_UTC : 2017-01-24 09:11:43
_STATISTICS_TAGS : BPS DURATION NUMBER_OF_FRAMES NUMBER_OF_BYTES

Video
ID : 1
Format : VC-1
Format profile : [email protected]
Codec ID : V_MS/VFW/FOURCC / WVC1
Codec ID/Hint : Microsoft
Duration : 1h 41mn
Bit rate : 15.0 Mbps
Width : 1 920 pixels
Height : 1 080 pixels
Display aspect ratio : 16:9
Frame rate mode : Constant
Frame rate : 23.976 fps
Color space : YUV
Chroma subsampling : 4:2:0
Bit depth : 8 bits
Scan type : Progressive
Compression mode : Lossy
Bits/(Pixel*Frame) : 0.301
Stream size : 10.7 GiB (88%)
Title : The Wicker Man [Unrated] (2006) Remux 1080p
Default : Yes
Forced : No

Audio #1
ID : 2
Format : AC-3
Format/Info : Audio Coding 3
Mode extension : CM (complete main)
Format settings, Endianness : Big
Codec ID : A_AC3
Duration : 1h 41mn
Bit rate mode : Constant
Bit rate : 448 Kbps
Channel(s) : 6 channels
Channel positions : Front: L C R, Side: L R, LFE
Sampling rate : 48.0 KHz
Bit depth : 16 bits
Compression mode : Lossy
Delay relative to video : 42ms
Stream size : 327 MiB (3%)
Title : [UA-DUB]
Language : Ukrainian
Default : Yes
Forced : Yes

Audio #2
ID : 3
Format : AC-3
Format/Info : Audio Coding 3
Mode extension : CM (complete main)
Format settings, Endianness : Big
Codec ID : A_AC3
Duration : 1h 41mn
Bit rate mode : Constant
Bit rate : 192 Kbps
Channel(s) : 2 channels
Channel positions : Front: L R
Sampling rate : 48.0 KHz
Bit depth : 16 bits
Compression mode : Lossy
Delay relative to video : 42ms
Stream size : 140 MiB (1%)
Title : [UA-MVO] (Канал 2+2)
Language : Ukrainian
Default : No
Forced : Yes

Audio #3
ID : 4
Format : AC-3
Format/Info : Audio Coding 3
Mode extension : CM (complete main)
Format settings, Endianness : Big
Codec ID : A_AC3
Duration : 1h 41mn
Bit rate mode : Constant
Bit rate : 192 Kbps
Channel(s) : 2 channels
Channel positions : Front: L R
Sampling rate : 48.0 KHz
Bit depth : 16 bits
Compression mode : Lossy
Delay relative to video : 42ms
Stream size : 140 MiB (1%)
Title : [UA-MVO](Канал NTN)
Language : Ukrainian
Default : No
Forced : No

Audio #4
ID : 5
Format : AC-3
Format/Info : Audio Coding 3
Mode extension : CM (complete main)
Format settings, Endianness : Big
Codec ID : A_AC3
Duration : 1h 41mn
Bit rate mode : Constant
Bit rate : 640 Kbps
Channel(s) : 6 channels
Channel positions : Front: L C R, Side: L R, LFE
Sampling rate : 48.0 KHz
Bit depth : 16 bits
Compression mode : Lossy
Delay relative to video : 42ms
Stream size : 467 MiB (4%)
Title : 'Original'
Language : English
Default : No
Forced : No

Audio #5
ID : 6
Format : AC-3
Format/Info : Audio Coding 3
Format profile : Dolby Digital
Mode extension : CM (complete main)
Format settings, Endianness : Big
Codec ID : A_AC3
Duration : 1h 41mn
Bit rate mode : Constant
Bit rate : 192 Kbps
Channel(s) : 2 channels
Channel positions : Front: L R
Sampling rate : 48.0 KHz
Bit depth : 16 bits
Compression mode : Lossy
Delay relative to video : 42ms
Stream size : 140 MiB (1%)
Title : 'Коментарі'
Language : English
Default : No
Forced : No

Text #1
ID : 7
Format : PGS
Muxing mode : zlib
Codec ID : S_HDMV/PGS
Codec ID/Info : Picture based subtitle format used on BDs/HD-DVDs
Language : Ukrainian
Default : Yes
Forced : No

Text #2
ID : 8
Format : PGS
Muxing mode : zlib
Codec ID : S_HDMV/PGS
Codec ID/Info : Picture based subtitle format used on BDs/HD-DVDs
Language : English
Default : No
Forced : No

Text #3
ID : 9
Format : PGS
Muxing mode : zlib
Codec ID : S_HDMV/PGS
Codec ID/Info : Picture based subtitle format used on BDs/HD-DVDs
Language : English
Default : No
Forced : No
Код:
Скріншоти




Джерела та подяки: &
Подяки karvai0 за запис з 2+2, AlexTex за доріжку з НТН, Electr0man - за форсовані субтитри, mrdavis - за українізований постер; HDClub'у - за зведення під розширену версію.
ЗАЛИШАЙТЕСЬ ЯКОМОГА ДОВШЕ НА РОЗДАЧІ!
СКАЧАВ САМ - ДАЙ СКАЧАТИ ІНШИМ


Золотий реліз (завантажене не впливає на рейтинг)
 Трекер:    Зареєстрований   

Завантажити / скачати фільм українською



відео для новачків



 Зареєстрований:   2017-01-24 14:25
 Розмір:   12.08 GB 
 Оцінка фільму:   8.5/10 (Голосів: 6)
   
boroznaya 
VIP


З нами з: 02.11.12
Востаннє: 15.12.17
Повідомлень: 2380

2017-01-23 16:48  
От би театральну версію у такій же якості! Ех... немеє блюра...
hetzendorf 
Відео Гуртом - підтримка та поширення
Відео Гуртом - підтримка та поширення


З нами з: 23.07.15
Востаннє: 15.12.17
Повідомлень: 642

2017-01-23 21:32  
boroznaya написано:
The Wicker Man

Я хоча й незгоден з поточним рейтингом цього фільму (сам поставив 6/10 на imdb), але гадаю краще було б озвучити фільм 1973 р — цікаво було б подивитися.

Bod_zik99 
VIP


З нами з: 28.12.13
Востаннє: 15.12.17
Повідомлень: 1282

2017-01-23 21:44  
hetzendorf
Скоро буде.Фільм пройшов голосування і незабаром буде озвучений ( https://toloka.to/t79053 ).

kryk-v.ya. 
Поважний учасник


З нами з: 14.02.14
Востаннє: 15.12.17
Повідомлень: 239

2017-02-02 20:30  
на 92 хвилині іде обрив,треба прокрутити на одну хвилину...це тільки у мене так чи ще у когось...
igor911 
Відео Гуртом
Відео Гуртом


З нами з: 18.01.08
Востаннє: 15.12.17
Повідомлень: 8503

2017-02-02 22:01  
kryk-v.ya. спробуй перевірити файл mkvalidator'ом.
kryk-v.ya. 
Поважний учасник


З нами з: 14.02.14
Востаннє: 15.12.17
Повідомлень: 239

2017-02-03 11:44  
igor911
я ще такого ніколи не робив,але спробую,і не знаю чи получиться все правильно зробити з першого разу,можливо хто не-будь з досвідченніших спробує...але якщо з 20 скачаних ні у кого такого нема то і проблеми нема,я просто перекачаю...

lpershyi 
Попереджень: 2
Попереджень: 2 


З нами з: 04.01.11
Востаннє: 03.08.17
Повідомлень: 2741

2017-04-19 01:56  
kryk-v.ya. написано:
на 92 хвилині іде обрив,
B мене взагалі неможливо почати запис копії фільму, зупинилося на 0,9 %.
Ваш часовий пояс: GMT + 2 Години

Нова тема   Відповісти