Джек Річер: Не відступай / Jack Reacher: Never Go Back (2016) 720p-mini

Нові коментарі

Нова тема   Відповісти
Автор Повідомлення
Drool 
VIP


З нами з: 17.04.10
Востаннє: 26.09.20
Повідомлень: 1548

2017-01-23 09:30  
Джек Річер: Не відступай / Jack Reacher: Never Go Back (2016) 720p-mini

Офіційний трейлер

Жанр: бойовик, драма, трилер
Країна: США


Діти до 13 років допускаються на фільм тільки з батьками
Настійне застереження батькам. Деякий матеріал може бути невідповідним для дітей до 13 років. Цей рейтинг показує, що оцінений фільм може бути невідповідним для дітей. Батьки повинні бути особливо обережні, дозволяючи своїм маленьким дітям перегляд. Грубе або тривале насильство відсутнє; сексуальна орієнтація на наготу відсутня; деякі сцени вживання наркотиків можуть бути присутніми; можна почути одиничні вживання грубої сексуальної лексики. Присутня епізодична оголеність (не враховуючи репродуктивні органи). Присутні сексуальні натяки і натяки на гомосексуалізм чи сексуальні збочення.
Кінокомпанія: Paramount Pictures, Skydance Productions
Режисер: Едвард Цвік
Актори: Том Круз, Кобі Смолдерс, Роберт Ніппер, Тері Уайбл, Даніка Ярош, Елдіс Ходж, Нінджа Н. Деву, Сью-Лінн Ансарі, Патрік Хьюсінгер, Остін Хеберт

Сюжет:
Джек Річер вирішив відпочити і повернутися в старий добрий 110-ий підрозділ військової поліції, де він колись був начальником. Крім того, у нього є додатковий інтерес – теперішній командир частини, майор Сьюзан Тернер. Саме ця жінка врятувала його, повідомляючи своїм схвильованим голосом по телефону цінну інформацію, яка допомогла Джеку виплутатися з великих неприємностей. Ось тільки опинившись в розташуванні частини, Річер дізнається, що зовсім недавно Сьюзан заарештували за отримання великого хабара. А його самого звинуватили у вбивстві, яке було шістнадцять років тому...


Тривалість: 01:58:08
Якість: 720p-mini
Відео:
кодек:
розмір кадру: 1280x536
бітрейт: 2612 кб/с

Аудіо:
мова: українська
переклад: професійний дубльований
кодек: 5.1
бітрейт: 448 кб/с
Подяка пану AngryBirdsUA за українську доріжку

Субтитри:
мова: українська
тип: програмні (м'які, форсовані)
формат: *.srt
Info
Код:
General
Unique ID                                : 19905230163016429681711663537406574692 (0xEF99B9E2914EEE7D58269571DDB8064)
Complete name                            : /mnt/disk_d/Video/Jack.Reacher.Never.Go.Back.2016.Ukr.Dub..720p-mini.UAGet.
Format                                   :
Format version                           : Version 4 / Version 2
File size                                : 2.53 GiB
Duration                                 : 1h 58mn
Overall bit rate                         : 3 060 Kbps
Movie name                               : Джек Річер: Не відступай (2016) 720p-mini -=UAGet=-
Encoded date                             : UTC 2017-01-23T21:43:58Z
Writing application                      : v9.7.1 ('Pandemonium') 64bit
Writing library                          : Lavf57.7.2
Attachements                             : cover.jpg
ARTIST                                   : Том Круз, Кобі Смолдерс, Роберт Ніппер, Тері Уайбл, Даніка Ярош, Елдіс Ходж...
DIRECTOR                                 : Едвард Цвік
DATE_RELEASED                            : 2016
SUMMARY                                  : www.imdb.com/title/tt3393786/
GENRE                                    : бойовик, драма, трилер
SYNOPSIS                                 : Джек Річер вирішив відпочити і повернутися в старий добрий 110-ий підрозділ військової поліції, де він колись був начальником. Крім того, у нього є додатковий інтерес – теперішній командир частини, майор Сьюзан Тернер. Саме ця жінка врятувала його, повідомляючи своїм схвильованим голосом по телефону цінну інформацію, яка допомогла Джеку виплутатися з великих неприємностей. Ось тільки опинившись в розташуванні частини, Річер дізнається, що зовсім недавно Сьюзан заарештували за отримання великого хабара. А його самого звинуватили у вбивстві, яке було шістнадцять років тому...
DURATION                                 : 01:13:14.853000000
NUMBER_OF_FRAMES                         : 8
NUMBER_OF_BYTES                          : 369
_STATISTICS_WRITING_APP                  : v9.7.1 ('Pandemonium') 64bit
_STATISTICS_WRITING_DATE_UTC             : 2017-02-22 11:57:43
_STATISTICS_TAGS                         : BPS DURATION NUMBER_OF_FRAMES NUMBER_OF_BYTES

Video
ID                                       : 1
Format                                   : AVC
Format/Info                              : Advanced Video Codec
Format profile                           : [email protected]
Format settings, CABAC                   : Yes
Format settings, ReFrames                : 11 frames
Codec ID                                 : V_MPEG4/ISO/AVC
Duration                                 : 1h 58mn
Bit rate                                 : 2 612 Kbps
Width                                    : 1 280 pixels
Height                                   : 536 pixels
Display aspect ratio                     : 2.40:1
Frame rate mode                          : Constant
Frame rate                               : 23.976 fps
Color space                              : YUV
Chroma subsampling                       : 4:2:0
Bit depth                                : 8 bits
Scan type                                : Progressive
Bits/(Pixel*Frame)                       : 0.159
Stream size                              : 2.11 GiB (83%)
Title                                    : Джек Річер: Не відступай (2016) 720p-mini -=UAGet=-
Writing library                          : core 148
Encoding settings                        : cabac=1 / ref=12 / deblock=1:-3:-3 / analyse=0x3:0x133 / me=umh / subme=11 / psy=1 / psy_rd=1,10:0,10 / mixed_ref=1 / me_range=64 / chroma_me=1 / trellis=2 / 8x8dct=1 / cqm=0 / deadzone=21,11 / fast_pskip=0 / chroma_qp_offset=-3 / threads=6 / lookahead_threads=1 / sliced_threads=0 / nr=0 / decimate=1 / interlaced=0 / bluray_compat=0 / constrained_intra=0 / bframes=12 / b_pyramid=1 / b_adapt=2 / b_bias=0 / direct=3 / weightb=1 / open_gop=0 / weightp=2 / keyint=240 / keyint_min=24 / scenecut=40 / intra_refresh=0 / rc=2pass / mbtree=0 / bitrate=2612 / ratetol=1,0 / qcomp=1,00 / qpmin=0 / qpmax=69 / qpstep=4 / cplxblur=20,0 / qblur=0,5 / ip_ratio=1,40 / pb_ratio=1,30 / aq=3:1,00
Default                                  : Yes
Forced                                   : Yes
Color range                              : Limited
Color primaries                          : BT.709
Transfer characteristics                 : BT.709
Matrix coefficients                      : BT.709
DURATION                                 : 01:58:08.915000000
NUMBER_OF_FRAMES                         : 169964
NUMBER_OF_BYTES                          : 2313007652
_STATISTICS_WRITING_APP                  : v9.7.1 ('Pandemonium') 64bit
_STATISTICS_WRITING_DATE_UTC             : 2017-02-22 11:57:43
_STATISTICS_TAGS                         : BPS DURATION NUMBER_OF_FRAMES NUMBER_OF_BYTES

Audio
ID                                       : 2
Format                                   : AC-3
Format/Info                              : Audio Coding 3
Mode extension                           : CM (complete main)
Format settings, Endianness              : Big
Codec ID                                 : A_AC3
Duration                                 : 1h 58mn
Bit rate mode                            : Constant
Bit rate                                 : 448 Kbps
Channel(s)                               : 6 channels
Channel positions                        : Front: L C R, Side: L R, LFE
Sampling rate                            : 48.0 KHz
Compression mode                         : Lossy
Delay relative to video                  : -21ms
Stream size                              : 379 MiB (15%)
Title                                    : 5.1 @ 448 kbps
Language                                 : Ukrainian
Default                                  : Yes
Forced                                   : Yes

Text
ID                                       : 3
Format                                   : UTF-8
Codec ID                                 : S_TEXT/UTF8
Codec ID/Info                            : UTF-8 Plain Text
Title                                    : Forced
Language                                 : Ukrainian
Default                                  : Yes
Forced                                   : Yes
Скріншоти






Реліз від:
Особиста оцінка: 8 - мені сподобалося


 Трекер:    Зареєстрований   

Завантажити / скачати фільм українською



відео для новачків



 Зареєстрований:   2017-02-22 15:22
 Розмір:   2.53 GB 
 Оцінка фільму:   8.9/10 (Голосів: 35)
   
alex2 
Поважний учасник


З нами з: 01.02.12
Востаннє: 26.09.20
Повідомлень: 189

2017-01-23 17:30  
фільм така туфта..
bot 
робот


З нами з: 30.09.07
Востаннє: 26.05.05
Повідомлень: 25615

2017-01-24 09:22  
Тему перенесено з Анонси релізів до форуму Фільми в HD


Drool

madagaskar1 
VIP


З нами з: 08.05.14
Востаннє: 26.09.20
Повідомлень: 908

2017-01-26 18:29  
8\10 - дивитись можна, але якихось переживань під час фільму не виникає.
Drool 
VIP


З нами з: 17.04.10
Востаннє: 26.09.20
Повідомлень: 1548

2017-02-22 16:42  
Оновлено звукову доріжку на 5.1 448 kbps!
Blanove 
Поважний учасник


З нами з: 01.05.15
Востаннє: 14.09.20
Повідомлень: 153

2018-07-06 17:42  
супер, як і попередня частина!
Ваш часовий пояс: GMT + 2 Години

Нова тема   Відповісти