Таємниця перевалу Дятлова / The Dyatlov Pass Incident (2013) 1080p Ukr/Eng | Sub Eng

Нові коментарі

Нова тема   Відповісти
Автор Повідомлення
staf777 
Попереджень: 1
Попереджень: 1 


З нами з: 16.11.16
Востаннє: 19.12.18
Повідомлень: 1940

2017-01-22 17:28  
Таємниця перевалу Дятлова / The Dyatlov Pass Incident (2013) 1080p Ukr/Eng | Sub Eng

Таємниця перевалу Дятлова / The Dyatlov Pass Incident (2013) 1080p Ukr/Eng | Sub Eng


Жанр: трилер, жахи, фантастика
Країна: США, Росія



Кінокомпанія: Aldamisa Entertainment, K. JAM Media, Future Films
Режисер: Ренні Харлін
Актори: Джемма Аткінсон, Річард Рейд, Люк Олбрайт, Метт Стокоу, Райан Хоулі, Холлі Госс, Микола Бутенін, Валерій Федорович, Неллі Рачевська, Джейн Перрі, Ігор Кулачко, Олексій Нестеров, Валерія Федорович та інші.

Сюжет:
"Таємниця перевалу Дятлова" заснований на реальних подіях, що відбулися ймовірно в ніч з 1 на 2 лютого 1959 року на Північному Уралі, коли за нез'ясованих обставин загинула група туристів, очолювана Ігорем Дятловим. "Я був зачарований цією історією, яка залишається однією з найбільших паранормальних таємниць сучасності. Факти, сценарій та драматичність історії підкупили мене відразу ж, і здавалося, що захоплюючий фільм наче вже готовий та лежить на тарілочці", — поділився своїми враженнями режисер картини Ренні Харлін.


Тривалість: 01:40:15
Якість: 1080p
Відео:
кодек:
розмір кадру: 1920x1036
бітрейт: 11,4 Мбіт/с

Аудіо # 1:
мова: українська
переклад: багатоголосий закадровий
кодек: 2.0
бітрейт: 192 кб/с

Аудіо # 2:
мова: англійська
переклад: оригінал
кодек: 5.1
бітрейт: 1509 кб/с

Субтитри:
мова: англійська
тип: програмні (м'які)
формат: *.srt
Джерело озвучення:
Info
General
Unique ID : 241402224842265796780454303251291371170 (0xB59C6099C87122E88B0CCC1360B6F6A2)
Complete name : E:\HDCLUB\The Dyatlov Pass Incident (2013) [Ukr,Eng sub.Eng] 1080p [Hurtom].
Format :
Format version : Version 4 / Version 2
File size : 9.35 GiB
Duration : 1h 40mn
Overall bit rate : 13.4 Mbps
Movie name : The Dyatlov Pass Incident (2013) [Ukr,Eng sub.Eng] 1080p [Hurtom]
Encoded date : UTC 2017-01-22 19:19:02
Writing application : v8.5.1 ('Where you lead I will follow') 64bit
Writing library : libebml v1.3.3 + v1.4.4
DURATION : 01:34:08.604000000
NUMBER_OF_FRAMES : 1859
NUMBER_OF_BYTES : 53825
_STATISTICS_WRITING_APP : v8.5.1 ('Where you lead I will follow') 64bit
_STATISTICS_WRITING_DATE_UTC : 2017-01-22 19:19:02
_STATISTICS_TAGS : BPS DURATION NUMBER_OF_FRAMES NUMBER_OF_BYTES

Video
ID : 1
Format : AVC
Format/Info : Advanced Video Codec
Format profile : [email protected]
Format settings, CABAC : Yes
Format settings, ReFrames : 4 frames
Codec ID : V_MPEG4/ISO/AVC
Duration : 1h 40mn
Bit rate : 11.4 Mbps
Width : 1 920 pixels
Height : 1 036 pixels
Display aspect ratio : 1.85:1
Frame rate mode : Constant
Frame rate : 23.976 fps
Color space : YUV
Chroma subsampling : 4:2:0
Bit depth : 8 bits
Scan type : Progressive
Bits/(Pixel*Frame) : 0.239
Stream size : 7.97 GiB (85%)
Title : The Dyatlov Pass Incident (2013) 1080p [Hurtom]
Writing library : core 142 r2431+42 c69a006 tMod [[email protected] X86_64]
Encoding settings : cabac=1 / ref=4 / deblock=1:-3:-3 / analyse=0x3:0x133 / me=umh / subme=11 / psy=1 / fade_compensate=0.00 / psy_rd=1.15:0.03 / mixed_ref=1 / me_range=36 / chroma_me=1 / trellis=2 / 8x8dct=1 / cqm=0 / deadzone=21,11 / fast_pskip=0 / chroma_qp_offset=-3 / threads=12 / lookahead_threads=3 / sliced_threads=0 / nr=0 / decimate=0 / interlaced=0 / bluray_compat=0 / constrained_intra=0 / fgo=0 / bframes=10 / b_pyramid=2 / b_adapt=2 / b_bias=0 / direct=3 / weightb=1 / open_gop=0 / weightp=2 / keyint=250 / keyint_min=23 / scenecut=40 / intra_refresh=0 / rc_lookahead=120 / rc=crf / mbtree=0 / crf=16.5000 / qcomp=0.70 / qpmin=0:0:0 / qpmax=69:69:69 / qpstep=4 / vbv_maxrate=62500 / vbv_bufsize=78125 / crf_max=0.0 / nal_hrd=none / filler=0 / ip_ratio=1.40 / pb_ratio=1.30 / aq=4:0.80 / aq-sensitivity=10.00 / aq-factor=1.00:1.00:1.00 / aq2=0 / aq3=0
Language : English
Default : Yes
Forced : No
DURATION : 01:40:13.466000000
NUMBER_OF_FRAMES : 144179
NUMBER_OF_BYTES : 8755551385
_STATISTICS_WRITING_APP : v8.5.1 ('Where you lead I will follow') 64bit
_STATISTICS_WRITING_DATE_UTC : 2017-01-22 19:19:02
_STATISTICS_TAGS : BPS DURATION NUMBER_OF_FRAMES NUMBER_OF_BYTES

Audio #1
ID : 2
Format : AC-3
Format/Info : Audio Coding 3
Mode extension : CM (complete main)
Format settings, Endianness : Big
Codec ID : A_AC3
Duration : 1h 40mn
Bit rate mode : Constant
Bit rate : 192 Kbps
Channel(s) : 2 channels
Channel positions : Front: L R
Sampling rate : 48.0 KHz
Bit depth : 16 bits
Compression mode : Lossy
Stream size : 138 MiB (1%)
Title : [UA-MVO]
Language : Ukrainian
Default : Yes
Forced : Yes

Audio #2
ID : 3
Format :
Format/Info : Digital Theater Systems
Mode : 16
Format settings, Endianness : Big
Codec ID : A_DTS
Duration : 1h 40mn
Bit rate mode : Constant
Bit rate : 1 509 Kbps
Channel(s) : 6 channels
Channel positions : Front: L C R, Side: L R, LFE
Sampling rate : 48.0 KHz
Bit depth : 24 bits
Compression mode : Lossy
Stream size : 1.06 GiB (11%)
Title : [Original]
Language : English
Default : No
Forced : No

Text
ID : 4
Format : UTF-8
Codec ID : S_TEXT/UTF8
Codec ID/Info : UTF-8 Plain Text
Language : English
Default : No
Forced : No

Menu
00:00:00.000 : en:Chapter 1
00:00:00.333 : en:Chapter 2
00:01:39.166 : en:Chapter 3
00:16:14.416 : en:Chapter 4
00:29:49.291 : en:Chapter 5
00:41:49.750 : en:Chapter 6
00:54:19.625 : en:Chapter 7
01:07:26.458 : en:Chapter 8
01:19:31.166 : en:Chapter 9
01:30:32.750 : en:Chapter 10
Скріншоти




Джерело: &
Подяка за запис української доріжки з ТБ пану РОМЕО, та AngryBirdsUA за її синхронізацію
Особиста оцінка: 0 - не дивився


 Трекер:    Зареєстрований   

Завантажити / скачати фільм українською



відео для новачків



 Зареєстрований:   2017-01-22 23:48
 Розмір:   9.35 GB 
 Оцінка фільму:   8.1/10 (Голосів: 10)
   
witchhunter_UA 
Новенький


З нами з: 17.08.13
Востаннє: 24.08.18
Повідомлень: 6

2017-01-22 20:52  
Опис сюжету фільму не має взагалі нічого спільного с фільмом.

По сюжету група американських студентів вирушає в Росію для фільмування документальної стрічки про перевал Дятлова.

До речі фільм непоганий на початку, а далі повна лажа.

K2 
Поважний учасник


З нами з: 02.11.08
Востаннє: 18.12.18
Повідомлень: 213

2017-01-23 09:37  
Добре пам'ятаю цей фільм. Сподобавсь. Несподіванка, що з'явився наш переклад.
Ваш часовий пояс: GMT + 2 Години

Нова тема   Відповісти