Летіть додому / Fly Away Home (1996) Ukr/Eng | Sub Eng

Нові коментарі

Нова тема   Відповісти
Автор Повідомлення
Anonymous 







2017-01-22 14:45  
Летіть додому / Fly Away Home (1996) Ukr/Eng | Sub Eng


Жанр: драма, пригодницький, сімейний
Країна: США



Кінокомпанія: Columbia Pictures Corporation, Sandollar Productions
Режисер: Керрол Беллард / Carroll Ballard
Актори: Джеф Деніелз / Jeff Daniels, Анна Паквін / Anna Paquin, Дана Ділейні / Dana Delany, Террі Кінні / Terry Kinney, Голтер Грем / Holter Graham, Джеремі Речфорд / Jeremy Ratchford, Майкл Дж. Рейнольдс / Michael J. Reynolds, Девід Гемблен / David Hemblen, Кен Джеймс / Ken James та інші

Сюжет:
Перед маленькою Енні постає складне завдання - виховати зграйку гусенят, які, як і вона, залишилися без мами. Наближається зима, і якщо її нові підопічні не зможуть відлетіти на південь, то загинуть через холоднечу у суворій Канаді.
Навчити літати птахів - таке не легко зробити людині. Тільки завзятість, сміливість та любов можуть допомогти Енні та її батькові - вони вирішують побудувати власний літак, на якому Енні повинна пролетіти через увесь американський континент, щоб відвести своїх пташенят туди, де тепло, де сонце, додому ...

Рейтинг MPAA: PG - рекомендується присутність батьків
Вікова категорія: 6+
Тривалість: 01:46:58
Якість:
Відео:
кодек:
розмір кадру: 704 x 384
бітрейт: 2007 кб/с

Аудіо # 1:
мова: українська
переклад: двоголосий закадровий
кодек: 2.0
бітрейт: 192 кб/с

Аудіо # 2:
мова: англійська
переклад: оригінал
кодек: 5.1
бітрейт: 448 кб/с

Субтитри:
мова: англійська --> завантажити
тип: програмні (м'які)
формат: *.srt
Info
Код:
Format                      : AVI
Format/Info                 : Audio Video Interleave
Format profile              : OpenDML
File size                   : 1.99 GiB
Duration                    : 1 h 46 min
Overall bit rate            : 2 666 kb/s

Video
ID                          : 0
Format                      : MPEG-4 Visual
Format profile              : Advanced [email protected]
Format settings, BVOP       : 1
Format settings, QPel       : No
Format settings, GMC        : No warppoints
Format settings, Matrix     : Custom
Codec ID                    :
Codec ID/Hint               :
Duration                    : 1 h 46 min
Bit rate                    : 2 007 kb/s
Width                       : 704 pixels
Height                      : 384 pixels
Display aspect ratio        : 1.85:1
Frame rate                  : 23.976 (24000/1001) FPS
Color space                 : YUV
Chroma subsampling          : 4:2:0
Bit depth                   : 8 bits
Scan type                   : Progressive
Compression mode            : Lossy
Bits/(Pixel*Frame)          : 0.310
Stream size                 : 1.50 GiB (75%)
Writing library             : 65

Audio #1
ID                          : 1
Format                      : AC-3
Format/Info                 : Audio Coding 3
Mode extension              : CM (complete main)
Format settings, Endianness : Big
Codec ID                    : 2000
Duration                    : 1 h 46 min
Bit rate mode               : Constant
Bit rate                    : 192 kb/s
Channel(s)                  : 2 channels
Channel positions           : Front: L R
Sampling rate               : 48.0 kHz
Frame rate                  : 31.250 FPS (1536 spf)
Bit depth                   : 16 bits
Compression mode            : Lossy
Stream size                 : 147 MiB (7%)
Alignment                   : Split accross interleaves
Interleave, duration        : 42  ms (1.00 video frame)
Interleave, preload duratio : 500  ms
Title                       : UKR DVO [Novyj]

Audio #2
ID                          : 2
Format                      : AC-3
Format/Info                 : Audio Coding 3
Mode extension              : CM (complete main)
Format settings, Endianness : Big
Codec ID                    : 2000
Duration                    : 1 h 46 min
Bit rate mode               : Constant
Bit rate                    : 448 kb/s
Channel(s)                  : 6 channels
Channel positions           : Front: L C R, Side: L R, LFE
Sampling rate               : 48.0 kHz
Frame rate                  : 31.250 FPS (1536 spf)
Bit depth                   : 16 bits
Compression mode            : Lossy
Stream size                 : 343 MiB (17%)
Alignment                   : Split accross interleaves
Interleave, duration        : 42  ms (1.00 video frame)
Interleave, preload duratio : 500  ms
Title                       : ENG


Джерело: &
Подяки за українську доріжку: imonko, xSlim, karvai0


Срібний реліз (на рейтинг впливає 50% завантаженого)
 Трекер:    Зареєстрований   

Завантажити / скачати фільм українською



відео для новачків



 Зареєстрований:   2017-01-22 15:30
 Розмір:   1.99 GB 
 Оцінка фільму:   4.2/10 (Голосів: 16)
   
Інші релізи
   Летіть додому / Fly Away Home (1996) 720p Ukr/Eng | Sub Eng imonko  1 / 0   4.37 GB   2012-03-25 23:04 
Ваш часовий пояс: GMT + 2 Години

Нова тема   Відповісти