Готика / Gothika (2003) Remux 1080p 2xUkr/Eng | Sub Eng

Нові коментарі

Нова тема   Відповісти
Останній раз роздавалося staf777 (2017-08-16)
Автор Повідомлення
staf777 
Відео Гуртом - підтримка та поширення
Відео Гуртом - підтримка та поширення


З нами з: 16.11.16
Востаннє: 16.08.17
Повідомлень: 522

2017-01-22 01:19  
Готика / Gothika (2003) Remux 1080p 2xUkr/Eng | Sub Eng

Готика / Gothika (2003) Remux 1080p 2xUkr/Eng | Sub Eng

«Мертві не завжди йдуть...»



Жанр: містика, триллер, детектив
Країна: США



Кіностудія / кінокомпанія: Columbia Pictures Corporation
Режисер: Матьє Кассовіц (Mathieu Kassovitz)
Актори: Голлі Беррі (Halle Berry), Пенелопа Крус (Penélope Cruz), Роберт Дауні-мол. (Robert Downey Jr.), Чарлз Даттон (Charles S. Dutton) та інші.

Сюжет:
Фільм розповідає про жінку-психіатра, яка одного дня стає пацієнткою лікарні для неосудних злочинців, де вона раніше працювала.
До того ж, її звинувачують у скоєнні жорстокого вбивства, якого вона зовсім не пам‘ятає. Намагаючись зрозуміти, що відбувається, вона стає свідком незбагненних містичних подій...


Тривалість: 01:38:07
Якість: Remux 1080p
Відео:
кодек:
розмір кадру: 1920x1080
бітрейт: 28,7 Mб/с

Аудіо # 1:
мова: українська
переклад: двоголосий закадровий
кодек: 2.0
бітрейт: 256 кб/с

Аудіо # 2:
мова: українська
переклад: багатоголосий закадровий | Так треба продакшн на замовлення |
кодек: 2.0
бітрейт: 192 кб/с

Аудіо # 3:
мова: англійська
переклад: оригінал
кодек: Dolby TrueHD MA 5.1
бітрейт: 1599 кб/с

Аудіо # 4:
мова: англійська
переклад: описова
кодек: 5.1
бітрейт: 640 кб/с

Аудіо # 5:
мова: англійська
переклад: коментарі режисера
кодек: 2.0
бітрейт: 192 кб/с

Субтитри# 1-2:
мова: англійська
тип: пререндерні
формат: PGS
Info
General
Unique ID : 186547115534857517893633441479625598573 (0x8C57AAE6D5CBDDD5B6C92FB99508E66D)
Complete name : H:\» HD українською » Фільми в HD\Жахи\Gothika (2003) [2xUkr,Eng sub.Eng] Remux 1080p [Hurtom].
Format :
Format version : Version 4 / Version 2
File size : 21.7 GiB
Duration : 1 h 38 min
Overall bit rate mode : Variable
Overall bit rate : 31.7 Mb/s
Movie name : Gothika (2003) [2xUkr,Eng sub.Eng] Remux 1080p [Hurtom]
Encoded date : UTC 2017-01-28 15:41:28
Writing application : mkvmerge v9.8.0 ('Kuglblids') 64bit
Writing library : libebml v1.3.4 + libmatroska v1.4.5

Video
ID : 1
Format : MPEG Video
Format version : Version 2
Format profile : [email protected]
Format settings, BVOP : Yes
Format settings, Matrix : Custom
Format settings, GOP : M=3, N=12
Codec ID : V_MPEG2
Codec ID/Info : MPEG 1 or 2 Video
Duration : 1 h 38 min
Bit rate mode : Variable
Bit rate : 28.7 Mb/s
Maximum bit rate : 33.0 Mb/s
Width : 1 920 pixels
Height : 1 080 pixels
Display aspect ratio : 16:9
Frame rate mode : Constant
Frame rate : 23.976 (24000/1001) FPS
Color space : YUV
Chroma subsampling : 4:2:0
Bit depth : 8 bits
Scan type : Progressive
Compression mode : Lossy
Bits/(Pixel*Frame) : 0.577
Time code of first frame : 00:00:00:00
Time code source : Group of pictures header
GOP, Open/Closed : Open
GOP, Open/Closed of first frame : Closed
Stream size : 19.7 GiB (91%)
Title : Remux 1080p [Hurtom]
Default : Yes
Forced : No

Audio #1
ID : 2
Format : AC-3
Format/Info : Audio Coding 3
Mode extension : CM (complete main)
Format settings, Endianness : Big
Codec ID : A_AC3
Duration : 1 h 38 min
Bit rate mode : Constant
Bit rate : 256 kb/s
Channel(s) : 2 channels
Channel positions : Front: L R
Sampling rate : 48.0 kHz
Frame rate : 31.250 FPS (1536 spf)
Bit depth : 16 bits
Compression mode : Lossy
Stream size : 180 MiB (1%)
Title : [UA-DVO]1+1|
Language : Ukrainian
Default : Yes
Forced : Yes

Audio #2
ID : 3
Format : AC-3
Format/Info : Audio Coding 3
Mode extension : CM (complete main)
Format settings, Endianness : Big
Codec ID : A_AC3
Duration : 1 h 38 min
Bit rate mode : Constant
Bit rate : 192 kb/s
Channel(s) : 2 channels
Channel positions : Front: L R
Sampling rate : 48.0 kHz
Frame rate : 31.250 FPS (1536 spf)
Bit depth : 16 bits
Compression mode : Lossy
Stream size : 135 MiB (1%)
Title : [UA-MVO]"ТакТребаПродакшн"
Language : Ukrainian
Default : No
Forced : Yes

Audio #3
ID : 4
Format : TrueHD
Codec ID : A_TRUEHD
Duration : 1 h 38 min
Bit rate mode : Variable
Bit rate : 1 599 kb/s
Maximum bit rate : 3 168 kb/s
Channel(s) : 6 channels
Channel positions : Front: L C R, Side: L R, LFE
Sampling rate : 48.0 kHz
Frame rate : 1 200.000 FPS (40 spf)
Compression mode : Lossless
Stream size : 1.10 GiB (5%)
Title : [Original]
Language : English
Default : No
Forced : No

Audio #4
ID : 5
Format : AC-3
Format/Info : Audio Coding 3
Mode extension : CM (complete main)
Format settings, Endianness : Big
Codec ID : A_AC3
Duration : 1 h 38 min
Bit rate mode : Constant
Bit rate : 640 kb/s
Channel(s) : 6 channels
Channel positions : Front: L C R, Side: L R, LFE
Sampling rate : 48.0 kHz
Frame rate : 31.250 FPS (1536 spf)
Bit depth : 16 bits
Compression mode : Lossy
Stream size : 449 MiB (2%)
Language : English
Default : No
Forced : No

Audio #5
ID : 6
Format : AC-3
Format/Info : Audio Coding 3
Format profile : Dolby Digital
Mode extension : CM (complete main)
Format settings, Endianness : Big
Codec ID : A_AC3
Duration : 1 h 38 min
Bit rate mode : Constant
Bit rate : 192 kb/s
Channel(s) : 2 channels
Channel positions : Front: L R
Sampling rate : 48.0 kHz
Frame rate : 31.250 FPS (1536 spf)
Bit depth : 16 bits
Compression mode : Lossy
Stream size : 135 MiB (1%)
Language : English
Default : No
Forced : No

Text #1
ID : 7
Format : PGS
Muxing mode : zlib
Codec ID : S_HDMV/PGS
Codec ID/Info : Picture based subtitle format used on BDs/HD-DVDs
Duration : 1 h 32 min
Bit rate : 9 741 b/s
Count of elements : 1608
Stream size : 6.47 MiB (0%)
Language : English
Default : No
Forced : No

Text #2
ID : 8
Format : PGS
Muxing mode : zlib
Codec ID : S_HDMV/PGS
Codec ID/Info : Picture based subtitle format used on BDs/HD-DVDs
Duration : 1 h 32 min
Bit rate : 11.7 kb/s
Count of elements : 1582
Stream size : 7.75 MiB (0%)
Language : English
Default : No
Forced : No
Скріншоти


Джерело: &
Подяки: пану xslim за надану сиру доріжку від студії "ТТП" та пану robotron005 за запис з 1+1 та синхронізацію обох доріжок


Золотий реліз (завантажене не впливає на рейтинг)
 Трекер:    Зареєстрований   

Завантажити / скачати фільм українською



відео для новачків



 Зареєстрований:   2017-01-28 22:59
 Розмір:   21.7 GB 
 Оцінка фільму:   10/10 (Голосів: 3)
   
Інші релізи
   Готика / Gothika (2003) 720р 2xUkr/Eng | Sub Eng 11FrYkT  0 / 0   5.43 GB   2012-08-06 23:12 
   Готика / Gothika (2003) 2хUkr/Eng robotron005  7 / 0   1.73 GB   2012-01-03 20:26 
Ваш часовий пояс: GMT + 2 Години

Нова тема   Відповісти