Бар Поркі / Porky's (1981) Remux 1080p Ukr/Eng | Sub Eng

Нові коментарі

Нова тема   Відповісти
Останній раз роздавалося exeeto (2017-08-13)
Автор Повідомлення
Hentaihunter 
VIP


З нами з: 16.08.08
Востаннє: 16.12.17
Повідомлень: 2394

2017-01-21 20:59  
Бар Поркі / Porky's (1981) Remux 1080p Ukr/Eng | Sub Eng

Бар Поркі / Porky's (1981) Remux 1080p Ukr/Eng | Sub Eng


Жанр: комедія
Країна: Канада, США



Кінокомпанія: Melvin Simon Productions, Astral Bellevue Pathé
Режисер: Боб Кларк
Актори: Ден Монаген, Марк Геррієр, Вайт Найт, Роджер Вілсон, Сиріл О'Райлі, Тоні Ґеніос, Кейкі Гантер, Ненсі Парсонс, Скот Коломбі

Сюжет:
Ще задовго до «Американського пирога» і «Суперперців» з'явилася оригінальна й найкраща секс-комедія. Незмінний фаворит шанувальників підліткового кіно, «Бар Поркі» познайомив аудиторію з Кім Кетролл («Поліцейська академія», «Великий переполох у малому Китаї») і зробив абсолютно вбивчі касові збори.

Це 1954 рік і секс-одержимі хлопці середньої школи Янгольський Пляж шукають сексу. Їхньою метою є «Поркі», місцевий нічний клуб і бордель. Тільки його бидловласник зі своїм братом-шерифом мають інші плани. Чи зможуть М'ясо, Міккі, Томмі й інші хлопці з ватаги повернути своє? А невдаха Крихітка зрештою втратити свою невинність?

Зарекомендувавши себе спочатку в якості одного з головних творців жахів Канади фільмами «Чорне Різдво» і «Глупа ніч», Боб Кларк несподівано звернувся до світу підліткової секс-комедії та випадково зробив найуспішнішу картину канадського кіно всіх часів, яку вона має честь посідати і сьогодні.


Тривалість: 01:38:27
Якість: Remux
Відео:
кодек:
розмір кадру: 1920 х 1080
бітрейт: 34998 кб/с

Аудіо # 1:
мова: українська
переклад: двоголосий закадровий
кодек: 2.0
бітрейт: 224 кб/с

Аудіо # 2:
мова: англійська
переклад: оригінал
кодек: LPCM 1.0
бітрейт: 1152 кб/с

Аудіо # 3:
мова: англійська (коментарі Боба Кларка)
переклад: оригінал
кодек: 2.0
бітрейт: 192 кб/с

Джерело озвучення:


Субтитри:
мова: англійська (для людей з вадами слуху)
тип: пререндерні
формат: *.PGS
Info
Загальна інформація
ID : 1 (0x1)
Complete name : D:\Movies\Porky's.(1981).1080p.Remux.Ukr.Eng.m2ts
Format : BDAV
Format/Info : Blu-ray Video
File size : 27.2 GiB
Duration : 1h 38mn
Overall bit rate mode : Variable
Overall bit rate : 39.6 Mbps
Maximum Overall bit rate : 35.5 Mbps

Video
ID : 4113 (0x1011)
Menu ID : 1 (0x1)
Format : AVC
Format/Info : Advanced Video Codec
Format profile : [email protected]
Format settings, CABAC : Yes
Format settings, ReFrames : 3 frames
Codec ID : 27
Duration : 1h 38mn
Bit rate mode : Variable
Bit rate : 35.3 Mbps
Maximum bit rate : 40.0 Mbps
Width : 1 920 pixels
Height : 1 080 pixels
Display aspect ratio : 16:9
Frame rate : 23.976 fps
Color space : YUV
Chroma subsampling : 4:2:0
Bit depth : 8 bits
Scan type : Progressive
Bits/(Pixel*Frame) : 0.709
Stream size : 24.3 GiB (89%)
Color range : Limited
Color primaries : BT.709
Transfer characteristics : BT.709
Matrix coefficients : BT.709

Audio #1
ID : 4352 (0x1100)
Menu ID : 1 (0x1)
Format : AC-3
Format/Info : Audio Coding 3
Mode extension : CM (complete main)
Format settings, Endianness : Big
Codec ID : 129
Duration : 1h 38mn
Bit rate mode : Constant
Bit rate : 224 Kbps
Channel(s) : 2 channels
Channel positions : Front: L R
Sampling rate : 48.0 KHz
Compression mode : Lossy
Stream size : 158 MiB (1%)

Audio #2
ID : 4353 (0x1101)
Menu ID : 1 (0x1)
Format : PCM
Format settings, Endianness : Big
Format settings, Sign : Signed
Muxing mode : Blu-ray
Codec ID : 128
Duration : 1h 38mn
Bit rate mode : Constant
Bit rate : 1 152 Kbps
Encoded bit rate : 2 304 Kbps
Channel(s) : 1 channel
Channel positions : Front: C
Sampling rate : 48.0 KHz
Bit depth : 24 bits
Stream size : 811 MiB (3%)

Audio #3
ID : 4354 (0x1102)
Menu ID : 1 (0x1)
Format : AC-3
Format/Info : Audio Coding 3
Mode extension : CM (complete main)
Format settings, Endianness : Big
Codec ID : 129
Duration : 1h 38mn
Bit rate mode : Constant
Bit rate : 192 Kbps
Channel(s) : 2 channels
Channel positions : Front: L R
Sampling rate : 48.0 KHz
Compression mode : Lossy
Stream size : 135 MiB (0%)

Text
ID : 4608 (0x1200)
Menu ID : 1 (0x1)
Format : PGS
Codec ID : 144
Delay relative to video : 14s 431ms
Скріншоти





Джерело: Власний реліз
Особиста оцінка: 8 - мені сподобалося
Особиста подяка: sasha20072007 за надане повне українське озвучення


Золотий реліз (завантажене не впливає на рейтинг)
 Трекер:    Зареєстрований   

Завантажити / скачати фільм українською



відео для новачків



 Зареєстрований:   2017-01-26 20:12
 Розмір:   27.21 GB 
 Оцінка фільму:   10/10 (Голосів: 5)
   
Інші релізи
   Бар Поркі / Porky's (1981) 720p Ukr/Eng | Sub Eng Aradesh  1 / 0   4.52 GB   2017-02-11 16:01 
WorldMaster 
Свій


З нами з: 10.10.11
Востаннє: 03.12.17
Повідомлень: 65

2017-01-21 21:15  
Найсмішніша з комедій, дотепний гумор.
Romko_IF 
Свій


З нами з: 03.09.12
Востаннє: 16.12.17
Повідомлень: 71

2017-01-21 23:41  
Хєрня повна. Та щей жи2у вихваляють!
respect14 
VIP


З нами з: 26.01.11
Востаннє: 17.12.17
Повідомлень: 495

2017-01-23 00:08  
В інших релізах написано що фільм 1982-го року...
Hentaihunter 
VIP


З нами з: 16.08.08
Востаннє: 16.12.17
Повідомлень: 2394

2017-01-23 09:17  
respect14, http://www.imdb.com/title/tt0084522/releaseinfo
Якщо інші релізери не переглядають imdb, це їхні проблеми.

Hentaihunter 
VIP


З нами з: 16.08.08
Востаннє: 16.12.17
Повідомлень: 2394

2017-01-26 14:34  
Через технічні проблеми Blu-ray замінено на Remux.
Hentaihunter 
VIP


З нами з: 16.08.08
Востаннє: 16.12.17
Повідомлень: 2394

2017-01-26 20:29  
Ще раз перепрошую, але було виявлено відставання звуку української доріжки, довелося вкотре переробляти.
Ваш часовий пояс: GMT + 2 Години

Нова тема   Відповісти