Дзеркала [Розширена версія] / Mirrors [Unrated] (2008) 1080p Ukr/Eng | Sub Ukr/Eng

Нові коментарі

Нова тема   Відповісти
Автор Повідомлення
staf777 
Відео Гуртом - підтримка та поширення
Відео Гуртом - підтримка та поширення


З нами з: 16.11.16
Востаннє: 16.08.17
Повідомлень: 522

2017-01-21 21:54  

Дзеркала [Розширена версія] / Mirrors [Unrated] (2008) 1080p Ukr/Eng | Sub Ukr/Eng


Дзеркала [Розширена версія] / Mirrors [Unrated] (2008) 1080p Ukr/Eng | Sub Ukr/Eng

«There Is Evil........On The Other Side»

Жанр: жахи, триллер , детектив
Країна: США, Румунія



Кіностудія / кінокомпанія: Castel Film Romania
Режисер: Олександр Аджа
Актори: Кіфер Сазерленд, Паула Паттон, Камерон Бойс, Еріка Глюк, Емі Смарт, Мері Беті Пейл

Бюджет: $35 000 000
Збори у США: $30 691 439
Збори у світі: $33 050 000
Збори у Росії: $3 841 139
Прем'єра у світі: 15 серпня 2008

Прем’єра в Україні: 21.08.2008
Реліз на DVD: 25 вересня 2008, 16 жовтня 2008
Реліз на Blu-Ray: 23 квітня 2009


Сюжет:
Бен Карсон знавав часи і покраще. Вже пройшов майже рік з тих пір, як неврівноваженого детектива усунули від роботи в Поліцейському управлінні м. Нью-Йорка за вбивство іншого співробітника спецслужби, нещасний випадок, який не тільки коштував йому роботи, але і збудив у ньому тягу до алкоголю і агресивності, із-за чого дружина і діти віддалилися від нього, а сам він знайшов притулок на дивані в квартирі своєї сестри в Куїнс. Втративши надію повернутися до нормального життя і возз'єднатися з сім'єю, Карсон наймається на роботу нічним сторожем вигорілих руїн універмагу “Mayflower”. Те, що колись було символом процвітання і розкоші, тепер поволі руйнується в темноті, як загниваючий корабель-примара, розорений гігантською пожежею, що поглинула безліч безневинних життів. Коли Карсон обходить дозором свої володіння, обвуглені розвалини універмагу, він починає помічати щось зловісне в декоративних дзеркалах, що прикрашають стіни “Mayflower”.



Тривалість: 01:51:22 [Unrated версія] - Порівняння з театральною версією (16+)
Якість: 1080p
Відео:
кодек:
розмір кадру: 1920x800
бітрейт: 17,5 Mб/с

Аудіо # 1:
мова: українська
переклад: професійний дубльований
кодек: 5.1
бітрейт: 384 кб/с

Аудіо # 2:
мова: англійська
переклад: оригінал
кодек: 5.1
бітрейт: 1509 кб/с

Джерело озвучення:


Субтитри:
мова: українська
тип: програмні (м'які)
формат: *.srt

Субтитри:
мова: англійська
тип: програмні (м'які)
формат: *.srt
Info
General
Unique ID : 187506084489963803251932344689969854347 (0x8D105BB8B924054384DA99E97FCBF78B)
Complete name : E:\HDCLUB\Mirrors (2008) [Ukr,Eng sub.Ukr,Eng] 1080p [Unrated] [Hurtom].
Format :
Format version : Version 4 / Version 2
File size : 15.1 GiB
Duration : 1h 51mn
Overall bit rate : 19.4 Mbps
Movie name : Mirrors (2008) [Ukr,Eng sub.Ukr,Eng] 1080p [Unrated] [Hurtom]
Encoded date : UTC 2017-01-22 07:52:51
Writing application : mkvmerge v8.5.1 ('Where you lead I will follow') 64bit
Writing library : libebml v1.3.3 + libmatroska v1.4.4
DURATION : 01:41:15.279000000
NUMBER_OF_FRAMES : 806
NUMBER_OF_BYTES : 29779
_STATISTICS_WRITING_APP : mkvmerge v8.5.1 ('Where you lead I will follow') 64bit
_STATISTICS_WRITING_DATE_UTC : 2017-01-22 07:52:51
_STATISTICS_TAGS : BPS DURATION NUMBER_OF_FRAMES NUMBER_OF_BYTES

Video
ID : 1
Format : AVC
Format/Info : Advanced Video Codec
Format profile : [email protected]
Format settings, CABAC : Yes
Format settings, ReFrames : 5 frames
Format settings, GOP : N=1
Codec ID : V_MPEG4/ISO/AVC
Duration : 1h 51mn
Bit rate : 17.5 Mbps
Width : 1 920 pixels
Height : 800 pixels
Display aspect ratio : 2.40:1
Frame rate mode : Constant
Frame rate : 23.976 fps
Color space : YUV
Chroma subsampling : 4:2:0
Bit depth : 8 bits
Scan type : Progressive
Bits/(Pixel*Frame) : 0.475
Stream size : 13.3 GiB (88%)
Title : Mirrors [Unrated] (2008) 1080p [Hurtom]
Writing library : core 66 r1088M 71ac0a3
Encoding settings : cabac=1 / ref=5 / deblock=1:-3:-3 / analyse=0x3:0x133 / me=umh / subme=9 / psy_rd=1.2:0.0 / mixed_ref=1 / me_range=32 / chroma_me=1 / trellis=2 / 8x8dct=1 / cqm=0 / deadzone=21,11 / chroma_qp_offset=-2 / threads=6 / nr=0 / decimate=1 / mbaff=0 / bframes=8 / b_pyramid=1 / b_adapt=2 / b_bias=0 / direct=3 / wpredb=1 / keyint=250 / keyint_min=25 / scenecut=40(pre) / rc=2pass / bitrate=17500 / ratetol=1.0 / qcomp=0.60 / qpmin=10 / qpmax=51 / qpstep=4 / cplxblur=20.0 / qblur=0.5 / ip_ratio=1.40 / pb_ratio=1.30 / aq=1:0.80
Language : English
Default : Yes
Forced : No
DURATION : 01:51:22.129000000
NUMBER_OF_FRAMES : 160211
NUMBER_OF_BYTES : 14603822921
_STATISTICS_WRITING_APP : mkvmerge v8.5.1 ('Where you lead I will follow') 64bit
_STATISTICS_WRITING_DATE_UTC : 2017-01-22 07:52:51
_STATISTICS_TAGS : BPS DURATION NUMBER_OF_FRAMES NUMBER_OF_BYTES

Audio #1
ID : 2
Format : AC-3
Format/Info : Audio Coding 3
Mode extension : CM (complete main)
Format settings, Endianness : Big
Codec ID : A_AC3
Duration : 1h 51mn
Bit rate mode : Constant
Bit rate : 384 Kbps
Channel(s) : 6 channels
Channel positions : Front: L C R, Side: L R, LFE
Sampling rate : 48.0 KHz
Bit depth : 16 bits
Compression mode : Lossy
Stream size : 306 MiB (2%)
Title : |Дубляж, R5|
Language : Ukrainian
Default : Yes
Forced : Yes

Audio #2
ID : 3
Format :
Format/Info : Digital Theater Systems
Mode : 16
Format settings, Endianness : Big
Codec ID : A_DTS
Duration : 1h 51mn
Bit rate mode : Constant
Bit rate : 1 509 Kbps
Channel(s) : 6 channels
Channel positions : Front: L C R, Side: L R, LFE
Sampling rate : 48.0 KHz
Bit depth : 24 bits
Compression mode : Lossy
Stream size : 1.17 GiB (8%)
Title : [ORIGINAL]
Language : English
Default : No
Forced : No

Text #1
ID : 4
Format : UTF-8
Codec ID : S_TEXT/UTF8
Codec ID/Info : UTF-8 Plain Text
Language : Ukrainian
Default : No
Forced : No

Text #2
ID : 5
Format : UTF-8
Codec ID : S_TEXT/UTF8
Codec ID/Info : UTF-8 Plain Text
Language : English
Default : No
Forced : No
Скріншоти





Джерело: &
Особиста оцінка: 0 - не дивився


 Трекер:    Зареєстрований   

Завантажити / скачати фільм українською



відео для новачків



 Зареєстрований:   2017-01-22 13:40
 Розмір:   15.08 GB 
 Оцінка фільму:   9.9/10 (Голосів: 7)
   
Інші релізи
   Дзеркала [Розширена версія] / Mirrors [Unrated Cut] (2008) Ukr/Eng | Sub Ukr/Eng НТН  6 / 0   2.19 GB   2014-04-20 18:37 
   Дзеркала / Mirrors [Unrated] (2008) 720p Ukr/Eng | Sub Ukr/Eng braveboy  2 / 0   7.93 GB   2012-05-06 06:11 
   Дзеркала / Mirrors (2008) weber  7 / 0   1.36 GB   2008-09-20 23:26 
boroznaya 
VIP


З нами з: 02.11.12
Востаннє: 23.08.17
Повідомлень: 2264

2017-01-21 23:02  
Дублювання повне?
Patriot_ukr 
VIP


З нами з: 06.04.15
Востаннє: 23.08.17
Повідомлень: 1762

2017-01-22 13:13  
boroznaya
А бувають інші? Happy

arigato-snake 
Новенький


З нами з: 03.08.13
Востаннє: 15.08.17
Повідомлень: 3

2017-01-22 14:42  
Після просмотру фільму декому дивитись у дзеркало буде дуже страшно Wink (2)
igor911 
Відео Гуртом
Відео Гуртом


З нами з: 18.01.08
Востаннє: 23.08.17
Повідомлень: 7341

2017-01-22 16:54  
Patriot_ukr написано:
А бувають інші?

на розширені/режисерські версії рідко (дуже дуже рідко) буває повний ліцензійний дубляж, частіше фільмокраї роблять вставки оригіналу з субтитрами на неозвучені фрагменти. Тут начебто повний.

boroznaya 
VIP


З нами з: 02.11.12
Востаннє: 23.08.17
Повідомлень: 2264

2017-01-22 17:11  
igor911 написано:
Тут начебто повний

От і добре. Спасибі.

Hentaihunter 
VIP


З нами з: 16.08.08
Востаннє: 23.08.17
Повідомлень: 2362

2017-01-23 12:03  
staf777 написано:
Збори у Росії: $3 841 139

Навіщо це?

hetzendorf 
Відео Гуртом - підтримка та поширення
Відео Гуртом - підтримка та поширення


З нами з: 23.07.15
Востаннє: 23.08.17
Повідомлень: 404

2017-01-30 02:10  
Досить якісний жахливчик! Страхітливий такий, нерви лоскоче й тримає й напрузі. З недоліків можу відмітити занадто відверте розчленування у парочці епізодів. Ну зайве воно, адже ж це не а-ля «Хостел». Проте відкладаю собі у колекцію.
9/10

Ваш часовий пояс: GMT + 2 Години

Нова тема   Відповісти