Шерлок (Сезон 3) / Sherlock (Season 3) (2014) 1080p Ukr/Eng | Sub Ukr/Eng

Нові коментарі

Нова тема   Відповісти
Автор Повідомлення
Argentum 
VIP


З нами з: 25.09.11
Востаннє: 01.12.20
Повідомлень: 262

2017-01-21 12:17  
Шерлок (Сезон 3) / Sherlock (Season 3) (2014) 1080p Ukr/Eng | Sub Ukr/Eng

Шерлок (Сезон 3) / Sherlock (Season 3) (2014) 1080p Ukr/Eng | Sub Ukr/Eng


Жанр: детектив
Країна: Велика Британія



Кінокомпанія: Hartswood Films, BBC Wales, WGBH / BBC One
Режисер: Пол МакГіган, Юрос Лін
Актори: Бенедикт Камбербетч, Мартін Фріман, Саймон П. Дей, Уна Стаббс, Лу Брілі, Руперт Грейвз, Зої Телфорд

Сюжет:
В третьому сезоні на вас чекає феєричне повернення Шерлока і одруження Ватсона. Ви дізнаєтеся, як Шерлок розрахувався з генієм злочинного світу Моріарті, навіщо він інсценував власне самогубство, а ще у вас з'явиться можливість спостерігати за новими пригодами улюблених героїв!


Тривалість: 1 серія: ~ 01:30 (цілком серій: 3)
Перелік серій
Епізод 01 The Empty Hearse / Порожній катафалк
Епізод 02 The Sign of Three / Знак трьох
Епізод 03 His Last Vow / Його остання клятва
Якість: 1080p
Відео:
кодек:
розмір кадру: 1916 х 1080
бітрейт: 12300 кб/с

Аудіо # 1:
мова: українська
переклад: професійний дубльований
кодек: 2.0
бітрейт: 256 кб/с

Аудіо # 2:
мова: англійська
переклад: оригінал
кодек: 5.1
бітрейт: 1509 кб/с

Субтитри:
мова: українська [форсовані] by xfsthe
тип: програмні (м'які)
формат: *.srt

Субтитри:
мова: англійська
тип: програмні (м'які)
формат: *.
Info
General
Unique ID : 135500195088712057352157919990262235207 (0x65F06368E287977B6981E7B7FDA38047)
Complete name : /home/jack/Public/S3/Sherlock. Season 3 (2014) [ukr,eng] 1080p/Sherlock - S03E01 (2014) 1080p [Ukr, Eng].
Format :
Format version : Version 4 / Version 2
File size : 8.49 GiB
Duration : 1h 26mn
Overall bit rate : 14.1 Mbps
Encoded date : UTC 2017-01-21 16:44:47
Writing application : v9.7.1 ('Pandemonium') 64bit
Writing library : libebml v1.3.4 + v1.4.5

Video
ID : 1
Format : AVC
Format/Info : Advanced Video Codec
Format profile : [email protected]
Format settings, CABAC : Yes
Format settings, ReFrames : 4 frames
Codec ID : V_MPEG4/ISO/AVC
Duration : 1h 26mn
Bit rate : 12.3 Mbps
Width : 1 916 pixels
Height : 1 080 pixels
Display aspect ratio : 16:9
Frame rate mode : Constant
Frame rate : 25.000 fps
Color space : YUV
Chroma subsampling : 4:2:0
Bit depth : 8 bits
Scan type : Progressive
Bits/(Pixel*Frame) : 0.238
Stream size : 7.42 GiB (87%)
Writing library : core 148 r2643 5c65704
Encoding settings : cabac=1 / ref=2 / deblock=1:0:0 / analyse=0x1:0x111 / me=hex / subme=6 / psy=1 / psy_rd=1,00:0,00 / mixed_ref=1 / me_range=16 / chroma_me=1 / trellis=1 / 8x8dct=0 / cqm=0 / deadzone=21,11 / fast_pskip=1 / chroma_qp_offset=-2 / threads=6 / lookahead_threads=1 / sliced_threads=0 / nr=0 / decimate=1 / interlaced=0 / bluray_compat=0 / constrained_intra=0 / bframes=3 / b_pyramid=2 / b_adapt=1 / b_bias=0 / direct=1 / weightb=1 / open_gop=0 / weightp=1 / keyint=250 / keyint_min=25 / scenecut=40 / intra_refresh=0 / rc_lookahead=30 / rc=2pass / mbtree=1 / bitrate=12300 / ratetol=1,0 / qcomp=0,60 / qpmin=0 / qpmax=69 / qpstep=4 / cplxblur=20,0 / qblur=0,5 / vbv_maxrate=20000 / vbv_bufsize=25000 / nal_hrd=none / filler=0 / ip_ratio=1,40 / aq=1:1,00
Default : Yes
Forced : No
Color range : Limited
Color primaries : BT.709
Transfer characteristics : BT.709
Matrix coefficients : BT.709

Audio #1
ID : 2
Format : AC-3
Format/Info : Audio Coding 3
Mode extension : CM (complete main)
Format settings, Endianness : Big
Codec ID : A_AC3
Duration : 1h 26mn
Bit rate mode : Constant
Bit rate : 256 Kbps
Channel(s) : 2 channels
Channel positions : Front: L R
Sampling rate : 48.0 KHz
Frame rate : 31.250 fps (1536 spf)
Compression mode : Lossy
Delay relative to video : -5ms
Stream size : 158 MiB (2%)
Title : Професійний дубльований | 1+1
Language : Ukrainian
Default : Yes
Forced : No

Audio #2
ID : 3
Format :
Format/Info : Digital Theater Systems
Mode : 16
Format settings, Endianness : Big
Codec ID : A_DTS
Duration : 1h 26mn
Bit rate mode : Constant
Bit rate : 1 509 Kbps
Channel(s) : 6 channels
Channel positions : Front: L C R, Side: L R, LFE
Sampling rate : 48.0 KHz
Frame rate : 93.750 fps (512 spf)
Bit depth : 24 bits
Compression mode : Lossy
Delay relative to video : -5ms
Stream size : 933 MiB (11%)
Title : Оригінал
Language : English
Default : No
Forced : No

Text #1
ID : 4
Format : UTF-8
Codec ID : S_TEXT/UTF8
Codec ID/Info : UTF-8 Plain Text
Duration : 1h 18mn
Bit rate : 4 bps
Count of elements : 53
Stream size : 2.71 KiB (0%)
Title : Forced, by xfsthe
Language : Ukrainian
Default : No
Forced : No

Text #2
ID : 5
Format :
Codec ID : S_TEXT/
Codec ID/Info : Advanced Sub Station Alpha
Duration : 1h 25mn
Bit rate : 108 bps
Count of elements : 1164
Compression mode : Lossless
Stream size : 67.9 KiB (0%)
Language : English
Default : No
Forced : No
Скріншоти


Джерело: &
Особиста оцінка: 10 - без зайвих вагань рекомендую всім!


Бронзовий реліз (на рейтинг впливає 75% завантаженого)
 Трекер:    Зареєстрований   

Завантажити / скачати серіал українською



відео для новачків



 Зареєстрований:   2017-01-21 19:51
 Розмір:   25.71 GB 
 Оцінка серіалу:   9.6/10 (Голосів: 25)
   
11FrYkT 
Модератор відео


З нами з: 20.02.11
Востаннє: 01.12.20
Повідомлень: 7042

2017-01-21 13:16  
Argentum , є форсовані саби
Argentum 
VIP


З нами з: 25.09.11
Востаннє: 01.12.20
Повідомлень: 262

2017-01-21 13:27  
11FrYkT , як поділитеся лінком то я додам
igor911 
Модератор відео


З нами з: 18.01.08
Востаннє: 01.12.20
Повідомлень: 15083

2017-01-21 16:33  
Argentum, саби є тут https://toloka.to/t53667
Argentum 
VIP


З нами з: 25.09.11
Востаннє: 01.12.20
Повідомлень: 262

2017-01-21 19:51  
igor911 , дякую. Зараз перероблю

Додано через 1 годину 42 хвилини 48 секунд:

Реліз оновлено! Додав форсовані субтитри українською.

Ваш часовий пояс: GMT + 2 Години

Нова тема   Відповісти