Маленький принц / The Little Prince (2015) 1080p Ukr/Eng | Sub Eng

Нові коментарі

Нова тема   Відповісти
Автор Повідомлення
Anonymous 







2017-01-21 11:05  
Маленький принц / The Little Prince (2015) 1080p Ukr/Eng | Sub Eng



Альтернативний постер


повнорозмірні зображення відкриються по кліку (з натиснутим CTRL чи кліком середньою кнопкою мишки - у новій вкладці)



Жанр: мультфільм, фентезі, драма, пригодницький, сімейний
Країна: Франція



Кінокомпанія: Onyx Films, Orange Studio, Kaibou Productions, LPPTV, M6 Films, M6, ON Animation Studios, On Entertainment, Paramount Animation, TouTenKartoon
Режисер: Марк Осборн / Mark Osborne
Оригінальне озвучення: Джефф Бріджес / Jeff Bridges, Макензі Фой / Mackenzie Foy, Рейчел МакАдамс / Rachel McAdams, Маріон Котійяр / Marion Cotillard, Райлі Осборн / Riley Osborne, Джеймс Франко / James Franco, Бенісіо Дель Торо / Benicio Del Toro, Пол Джаматті / Paul Giamatti та інші

Сюжет:
Головна героїня мультфільму – маленька і дуже обдарована дівчинка. Увесь свій час вона присвячує навчанню. Сім'я переїжджає до нового будинку і наша героїня знайомиться з дивним дідусем, який живе по сусідству. Він виявляється льотчиком, який понад усе любить дивитися на зірки. Саме від нього дівчинка і дізнається історію Маленького принца – хлопчика, який живе один на своїй крихітній планеті. За твором Антуана де Сент-Екзюпері.

Офіційний український трейлер:

Рейтинг MPAA: PG - рекомендується присутність батьків
Вікова категорія: 6+
Тривалість: 01:46:34
Якість: 1080p [VietHD]
Відео:
кодек:
розмір кадру: 1920 х 818
бітрейт: 8185 кб/с [crf=16.4]

Аудіо # 1:
мова: українська
переклад: професійний дубльований | ААА-sound
кодек: 2.0
бітрейт: 192 кб/с
Інформація про дубляж
Переклад: Юлія Когут
Ролі дублювали: Юлія Перенчук, Олег Скрипка, Павло Скороходько, Сергій Притула, Андрій Альохін, Катерина Брайковська, Юрій Ребрик, Ярослав Чорненький, Ірина Грей, Олександр Єфімов та інші
Режисер: Олександр Єфімов
Фільм дубльовано студією ААА-sound у 2015 році на замовлення компанії Вольга-Україна.
Аудіо # 2:
мова: англійська
переклад: оригінал
кодек: 5.1
бітрейт: 640 кб/с

Субтитри # 1-3:
мова: англійська (форсовані, повні, SDH)
тип: програмні (м'які)
формат: *.srt

Збережено оригінальні розділи, як на Blu-ray
Info
Код:
Format                      :
Format version              : Version 4 / Version 2
File size                   : 6.71 GiB
Duration                    : 1 h 46 min
Overall bit rate            : 9 019 kb/s

Video
ID                          : 1
Format                      : AVC
Format/Info                 : Advanced Video Codec
Format profile              : [email protected]
Format settings, CABAC      : Yes
Format settings, ReFrames   : 5 frames
Codec ID                    : V_MPEG4/ISO/AVC
Duration                    : 1 h 46 min
Bit rate                    : 8 185 kb/s
Width                       : 1 920 pixels
Height                      : 818 pixels
Display aspect ratio        : 2.35:1
Frame rate mode             : Constant
Frame rate                  : 23.976 (24000/1001) FPS
Color space                 : YUV
Chroma subsampling          : 4:2:0
Bit depth                   : 8 bits
Scan type                   : Progressive
Bits/(Pixel*Frame)          : 0.217
Stream size                 : 6.09 GiB (91%)
Title                       : Маленький принц / The Little Prince (2015) 1080p [VietHD]
Writing library             : core 148 r2638 7599210
Encoding settings           : cabac=1 / ref=5 / deblock=1:-3:-3 / analyse=0x3:0x133 / me=umh / subme=10 / psy=1 / psy_rd=0.60:0.00 / mixed_ref=1 / me_range=24 / chroma_me=1 / trellis=2 / 8x8dct=1 / cqm=0 / deadzone=21,11 / fast_pskip=0 / chroma_qp_offset=-2 / threads=12 / lookahead_threads=2 / sliced_threads=0 / nr=0 / decimate=0 / interlaced=0 / bluray_compat=0 / constrained_intra=0 / bframes=9 / b_pyramid=2 / b_adapt=2 / b_bias=0 / direct=3 / weightb=1 / open_gop=0 / weightp=2 / keyint=250 / keyint_min=23 / scenecut=40 / intra_refresh=0 / rc_lookahead=60 / rc=crf / mbtree=0 / crf=16.4 / qcomp=0.60 / qpmin=0 / qpmax=69 / qpstep=4 / vbv_maxrate=62500 / vbv_bufsize=78125 / crf_max=0.0 / nal_hrd=none / filler=0 / ip_ratio=1.30 / pb_ratio=1.20 / aq=3:1.05
Language                    : English
Default                     : Yes
Forced                      : No
Color range                 : Limited
Matrix coefficients         : BT.709

Audio #1
ID                          : 2
Format                      : AC-3
Format/Info                 : Audio Coding 3
Mode extension              : CM (complete main)
Format settings, Endianness : Big
Codec ID                    : A_AC3
Duration                    : 1 h 46 min
Bit rate mode               : Constant
Bit rate                    : 192 kb/s
Channel(s)                  : 2 channels
Channel positions           : Front: L R
Sampling rate               : 48.0 kHz
Frame rate                  : 31.250 FPS (1536 spf)
Bit depth                   : 16 bits
Compression mode            : Lossy
Stream size                 : 146 MiB (2%)
Title                       : Dub [AAA-sound] 2.0 192 Kbps [Hurtom]
Language                    : Ukrainian
Default                     : Yes
Forced                      : Yes

Audio #2
ID                          : 3
Format                      : AC-3
Format/Info                 : Audio Coding 3
Mode extension              : CM (complete main)
Format settings, Endianness : Big
Codec ID                    : A_AC3
Duration                    : 1 h 46 min
Bit rate mode               : Constant
Bit rate                    : 640 kb/s
Channel(s)                  : 6 channels
Channel positions           : Front: L C R, Side: L R, LFE
Sampling rate               : 48.0 kHz
Frame rate                  : 31.250 FPS (1536 spf)
Bit depth                   : 16 bits
Compression mode            : Lossy
Stream size                 : 488 MiB (7%)
Title                       : Original, 5.1 640 Kbps
Language                    : English
Default                     : No
Forced                      : No

Text #1
ID                          : 4
Format                      : UTF-8
Codec ID                    : S_TEXT/UTF8
Codec ID/Info               : UTF-8 Plain Text
Duration                    : 1 h 35 min
Bit rate                    : 0 b/s
Count of elements           : 11
Stream size                 : 228 Bytes (0%)
Title                       : Forced
Language                    : English
Default                     : No
Forced                      : No

Text #2
ID                          : 5
Format                      : UTF-8
Codec ID                    : S_TEXT/UTF8
Codec ID/Info               : UTF-8 Plain Text
Duration                    : 1 h 37 min
Bit rate                    : 40 b/s
Count of elements           : 1033
Stream size                 : 29.0 KiB (0%)
Title                       : Full
Language                    : English
Default                     : No
Forced                      : No

Text #3
ID                          : 6
Format                      : UTF-8
Codec ID                    : S_TEXT/UTF8
Codec ID/Info               : UTF-8 Plain Text
Duration                    : 1 h 40 min
Bit rate                    : 46 b/s
Count of elements           : 1154
Stream size                 : 33.7 KiB (0%)
Title                       : Full SDH
Language                    : English
Default                     : No
Forced                      : No

Menu
00:00:00.000                : en:Chapter 01
00:06:11.871                : en:Chapter 02
00:16:06.966                : en:Chapter 03
00:22:35.854                : en:Chapter 04
00:32:19.771                : en:Chapter 05
00:38:05.366                : en:Chapter 06
00:43:55.675                : en:Chapter 07
00:49:36.849                : en:Chapter 08
00:57:30.864                : en:Chapter 09
01:08:33.234                : en:Chapter 10
01:14:06.359                : en:Chapter 11
01:20:31.744                : en:Chapter 12
01:27:21.945                : en:Chapter 13
01:39:06.023                : en:Chapter 14
Оригінал <----------> Ріп








Джерело: &
Подяки: - за українську доріжку панам AngryBirdsUA та Hanway; - за допомогу з постерами - п.havryk
ЗАЛИШАЙТЕСЬ ЯКОМОГА ДОВШЕ НА РОЗДАЧІ
ЗАВАНТАЖИВ САМ - ДАЙ ЗАВАНТАЖИТИ ІНШИМ!


 Трекер:    Зареєстрований   

Завантажити / скачати мультфільм українською



відео для новачків



 Зареєстрований:   2017-01-21 11:32
 Розмір:   6.71 GB 
 Оцінка мультфільму:   5.5/10 (Голосів: 20)
   
Інші релізи
ExtremeCat 
Свій


З нами з: 12.10.10
Востаннє: 16.08.17
Повідомлень: 120

2017-01-21 13:20  
ВЕЛИЧЕЗНЕ ДЯКУЮ)
І-р 
Новенький


З нами з: 21.07.16
Востаннє: 15.08.17
Повідомлень: 5

2017-01-26 20:55  
Цей мультик для тих, хто вміє включати голову.
Ваш часовий пояс: GMT + 2 Години

Нова тема   Відповісти