Дюплекс / Duplex (2003) 720p 2xUkr/Eng

Нові коментарі

Нова тема   Відповісти
Останній раз роздавалося zoerin (2017-10-23)
Автор Повідомлення
MasterYura 
Відео Гуртом - фільмокрай
Відео Гуртом - фільмокрай


З нами з: 21.11.09
Востаннє: 22.10.17
Повідомлень: 984

2017-01-21 00:50  
Дюплекс / Duplex (2003) 720p 2xUkr/2xEng

Дюплекс / Duplex (2003) 720p 2xUkr/Eng


Жанр: комедія
Країна: США, Німеччина



Кінокомпанія: Miramax Films
Режисер: Денні ДеВіто
Актори: Бен Стіллер, Дрю Беррімор, Ейлін Есселл, Харвей Фаєрштайн, Роберт Вісдом

Сюжет:
Молоде подружжя, Алекс та Ненсі, після довгих пошуків окремого житла, натрапляють на непогану пропозицію: їм пропонують гарний будинок у Брукліні, та ще й доволі дешево. Ну хто ж втримається перед такою спокусою? І все було б добре, якби не одне "але": на другому поверсі того будиночку проживає старенька квартирантка, яку за законом неможливо виселити. І попри більш ніж поважний вік, та бабуся виявилася досить жвавою жіночкою, своєю надмірною цікавістю та непосидючістю, вона дуже скоро покаже молодятам справжню ціну їхньої мрії...


Тривалість: 01:29:10
Якість:
Відео:
кодек:
розмір кадру: 1280x720
бітрейт: 7 230 кб/с

Аудіо # 1:
мова: українська
переклад: багатоголосий закадровий
кодек: 2.0
бітрейт: 192 кб/с

Аудіо # 2:
мова: українська
переклад: багатоголосий закадровий
кодек: 2.0
бітрейт: 192 кб/с

Аудіо # 3:
мова: англійська
переклад: оригінал
кодек: 5.1
бітрейт: 448 кб/с

Аудіо # 4:
мова: англійська
переклад: оригінал
кодек: FLAC 2.0
бітрейт: 719 кб/с

Субтитри:
мова: англійська
тип: програмні (м'які)
формат: *.srt
Info

General
Unique ID : 198492539107245348330158324293909422949 (0x955445C146B1021C855EDA5877312365)
Complete name : ...Duplex (2003) [2xUkr,2xEng] 720p [Hurtom] by MasterYura.
Format :
Format version : Version 4 / Version 2
File size : 4.50 GiB
Duration : 1 h 29 min
Overall bit rate mode : Variable
Overall bit rate : 7 232 kb/s
Encoded date : UTC 2017-04-08 11:41:00
Writing application : mkvmerge v10.0.0 ('To Drown In You') 64bit
Writing library : libebml v1.3.4 + libmatroska v1.4.5

Video
ID : 1
Format : AVC
Format/Info : Advanced Video Codec
Format profile : [email protected]
Format settings, CABAC : Yes
Format settings, ReFrames : 9 frames
Codec ID : V_MPEG4/ISO/AVC
Duration : 1 h 29 min
Bit rate : 5 678 kb/s
Width : 1 280 pixels
Height : 720 pixels
Display aspect ratio : 16:9
Frame rate mode : Constant
Frame rate : 23.976 (24000/1001) FPS
Color space : YUV
Chroma subsampling : 4:2:0
Bit depth : 8 bits
Scan type : Progressive
Bits/(Pixel*Frame) : 0.257
Stream size : 3.54 GiB (79%)
Title : 720p, , crf 18.2, 5679 kbps, 23.976 fps, High Profile 4.1
Writing library : core 129 r2245 bc13772
Encoding settings : cabac=1 / ref=9 / deblock=1:-3:-3 / analyse=0x3:0x113 / me=tesa / subme=11 / psy=1 / psy_rd=1.00:0.00 / mixed_ref=1 / me_range=48 / chroma_me=1 / trellis=2 / 8x8dct=1 / cqm=0 / deadzone=21,11 / fast_pskip=0 / chroma_qp_offset=-2 / threads=6 / lookahead_threads=1 / sliced_threads=0 / nr=0 / decimate=1 / interlaced=0 / bluray_compat=0 / constrained_intra=0 / bframes=11 / b_pyramid=2 / b_adapt=2 / b_bias=0 / direct=3 / weightb=1 / open_gop=0 / weightp=2 / keyint=240 / keyint_min=23 / scenecut=40 / intra_refresh=0 / rc=crf / mbtree=0 / crf=18.2 / qcomp=0.70 / qpmin=0 / qpmax=69 / qpstep=4 / ip_ratio=1.40 / pb_ratio=1.30 / aq=1:0.70
Language : English
Default : Yes
Forced : No

Audio #1
ID : 2
Format : AC-3
Format/Info : Audio Coding 3
Format settings, Endianness : Big
Codec ID : A_AC3
Duration : 1 h 29 min
Bit rate mode : Constant
Bit rate : 192 kb/s
Channel(s) : 2 channels
Channel positions : Front: L R
Sampling rate : 48.0 kHz
Frame rate : 31.250 FPS (1536 spf)
Bit depth : 16 bits
Compression mode : Lossy
Stream size : 122 MiB (3%)
Title : Новий канал (багатоголосий закадровий)
Language : Ukrainian
Service kind : Complete Main
Default : Yes
Forced : No

Audio #2
ID : 3
Format : AC-3
Format/Info : Audio Coding 3
Format settings, Endianness : Big
Codec ID : A_AC3
Duration : 1 h 29 min
Bit rate mode : Constant
Bit rate : 192 kb/s
Channel(s) : 2 channels
Channel positions : Front: L R
Sampling rate : 48.0 kHz
Frame rate : 31.250 FPS (1536 spf)
Bit depth : 16 bits
Compression mode : Lossy
Stream size : 122 MiB (3%)
Title : К1 (багатоголосий закадровий)
Language : Ukrainian
Service kind : Complete Main
Default : No
Forced : No

Audio #3
ID : 4
Format : AC-3
Format/Info : Audio Coding 3
Format settings, Endianness : Big
Codec ID : A_AC3
Duration : 1 h 29 min
Bit rate mode : Constant
Bit rate : 448 kb/s
Channel(s) : 6 channels
Channel positions : Front: L C R, Side: L R, LFE
Sampling rate : 48.0 kHz
Frame rate : 31.250 FPS (1536 spf)
Bit depth : 16 bits
Compression mode : Lossy
Stream size : 286 MiB (6%)
Title : From R1 DVD 5.1 448 kbps
Language : English
Service kind : Complete Main
Default : No
Forced : No

Audio #4
ID : 5
Format : FLAC
Format/Info : Free Lossless Audio Codec
Codec ID : A_FLAC
Duration : 1 h 29 min
Bit rate mode : Variable
Bit rate : 719 kb/s
Channel(s) : 2 channels
Channel positions : Front: L R
Sampling rate : 48.0 kHz
Frame rate : 11.719 FPS (4096 spf)
Bit depth : 24 bits
Stream size : 458 MiB (10%)
Title : From BluRay FLAC 2.0 719 kbps
Writing library : libFLAC 1.2.1 (UTC 2007-09-17)
Language : English
Default : No
Forced : No

Text
ID : 6
Format : UTF-8
Codec ID : S_TEXT/UTF8
Codec ID/Info : UTF-8 Plain Text
Duration : 1 h 22 min
Bit rate : 68 b/s
Count of elements : 1471
Stream size : 41.8 KiB (0%)
Language : English
Default : No
Forced : No
Скріншоти







Подяка користувачу з ex.ua (не знаю нікнейма) та Arsenfpu в якого "здер" опис)
Джерело: ex.ua
Особиста оцінка: 10 - без зайвих вагань рекомендую всім!


Срібний реліз (на рейтинг впливає 50% завантаженого)
 Трекер:    Зареєстрований   

Завантажити / скачати фільм українською



відео для новачків



 Зареєстрований:   2017-04-08 14:56
 Розмір:   4.5 GB 
 Оцінка фільму:   8.8/10 (Голосів: 9)
   
Інші релізи
   Дюплекс / Duplex (2003) 2xUkr/Eng Arsenfpu  2 / 0   1.7 GB   2016-10-04 21:04 
   Дюплекс / Duplex (2003) AngryBirdsUA  1 / 0   1.45 GB   2013-04-10 23:12 
   Дюплекс / Duplex (2003) 720p Zeus62  0 / 0   4.47 GB   2011-11-29 01:14 
   Дюплекс / Duplex (2003) Ukr/Eng Givi  2 / 0   1.57 GB   2009-07-08 22:26 
igor911 
Відео Гуртом
Відео Гуртом


З нами з: 18.01.08
Востаннє: 23.10.17
Повідомлень: 7969

2017-01-21 17:27  
MasterYura написано:
Muxing mode : Header stripping

режим стиснення заголовків заборонений, треба перемуксувати

Додано через 1 хвилину 4 секунди:

також вкажи к-ть каналів в аудіо 4 та тип субтитрів

uaxpasha 
Поважний учасник


З нами з: 05.08.12
Востаннє: 21.10.17
Повідомлень: 157

2017-01-21 19:23  
Ех, це вже була ера коли гарні комедії зникали, шкода, зараз нормальних взагалі нема
Фільм чудовий, і продовження з батьками, особливо перше, не підкачало

MasterYura 
Відео Гуртом - фільмокрай
Відео Гуртом - фільмокрай


З нами з: 21.11.09
Востаннє: 22.10.17
Повідомлень: 984

2017-04-08 14:58  
igor911 написано:

Muxing mode : Header stripping

режим стиснення заголовків заборонений, треба перемуксувати

оновлено торрент, прохання перевірити

igor911 
Відео Гуртом
Відео Гуртом


З нами з: 18.01.08
Востаннє: 23.10.17
Повідомлень: 7969

2017-04-08 14:59  
Перевірив, "золото" на тиждень для заохочення підтримки.
Ваш часовий пояс: GMT + 2 Години

Нова тема   Відповісти