Вихідний день Ферріса Бюллера / Ferris Bueller's day off (1986) 720p Ukr/Eng | Sub Multi

Нові коментарі

Нова тема   Відповісти
Автор Повідомлення
staf777 
Відео Гуртом - підтримка та поширення
Відео Гуртом - підтримка та поширення


З нами з: 16.11.16
Востаннє: 18.10.19
Повідомлень: 2986

2017-01-20 22:39  
Вихідний день Ферріса Бюллера / Ferris Bueller's day off (1986) 720p Ukr/Eng | Sub Multi

Оригінальний постер

Вихідний день Ферріса Бюллера / Ferris Bueller's day off (1986) 720p Ukr/Eng | Sub Multi
Жанр: комедія, сімейний
Країна: США



Кіностудія / кінокомпанія: Paramount
Режисер: Джон Х'юз / John Hughes
Актори: Метью Бродерік / Matthew Broderick, Алан Рак / Alan Ruck, Мiа Сара / Mia Sara, Джеффрі Джонс / Jeffrey Jones, Дженніфер Ґрей / Jennifer Grey, Сінді Пікетт / Cindy Pickett, Лаймен Ворд / Lyman Ward, Еді МакКлурґ / Edie McClurg, Чарлі Шин / Charlie Sheen, Бен Стайн / Ben Stein та інші

Сюжет:
Ферріс Бьюллер незвичайний хлопчина, наділений неймовірною витримкою та спокоєм. Він просто взірець для всіх, хто занадто серйозно сприймає життя. Чудового весняного дня напередодні випускних іспитів його потяг чергове прогуляти школу пересилює його і разом зі своєю подружкою та найкращим другом він вирушає у подорож через Чикаго, щоб помилуватися природою, відвідати музеї.. і просто насолодитися вільним днем.


Тривалість: 01:43:00
Якість: 720p
Відео:
кодек:
розмір кадру: 1280 х 544
бітрейт: 5423 кб/с

Аудіо # 1:
мова: українська
переклад: багатоголосий закадровий
кодек: 5.1
бітрейт: 1509 кб/с

Аудіо # 2:
мова: англійська
переклад: оригінал
кодек: 5.1
бітрейт: 1509 кб/с

Субтитри # 1 - 7:
мова: англійська, німецька, французька, іспанська, данська, фінська, румунська
тип: програмні (м'які)
формат: *.srt/*.
Info:
General
Unique ID : 223546388719701200675088561683500844442 (0xA82D77E9076BACDAA2A7C3B88473459A)
Complete name : E:\HDCLUB\Ferris Bueller's Day Off (1986) [Ukr,Eng sub.Multilanguage] 720p [Hurtom].
Format :
Format version : Version 4 / Version 2
File size : 6.08 GiB
Duration : 1h 43mn
Overall bit rate : 8 446 Kbps
Movie name : Ferris Bueller's Day Off (1986) [Ukr,Eng sub.Multilanguage] 720p [Hurtom]
Encoded date : UTC 2017-01-21 07:44:43
Writing application : v8.5.1 ('Where you lead I will follow') 64bit
Writing library : libebml v1.3.3 + v1.4.4
Attachements : CronosPro-Bold.ttf / CronosPro-Semibold.ttf / CronosPro-SemiboldIt.ttf
DURATION : 01:42:25.000000000
NUMBER_OF_FRAMES : 795
NUMBER_OF_BYTES : 55067
_STATISTICS_WRITING_APP : v8.5.1 ('Where you lead I will follow') 64bit
_STATISTICS_WRITING_DATE_UTC : 2017-01-21 07:44:43
_STATISTICS_TAGS : BPS DURATION NUMBER_OF_FRAMES NUMBER_OF_BYTES

Video
ID : 1
Format : AVC
Format/Info : Advanced Video Codec
Format profile : [email protected]
Format settings, CABAC : Yes
Format settings, ReFrames : 10 frames
Codec ID : V_MPEG4/ISO/AVC
Duration : 1h 43mn
Bit rate : 5 423 Kbps
Width : 1 280 pixels
Height : 544 pixels
Display aspect ratio : 2.35:1
Frame rate mode : Constant
Frame rate : 23.976 fps
Color space : YUV
Chroma subsampling : 4:2:0
Bit depth : 8 bits
Scan type : Progressive
Bits/(Pixel*Frame) : 0.325
Stream size : 3.78 GiB (62%)
Title : Release [Hurtom]
Writing library : core 67 r1163M 3f56e27
Encoding settings : cabac=1 / ref=10 / deblock=1:-3:-3 / analyse=0x3:0x133 / me=umh / subme=9 / psy_rd=0.9:0.7 / mixed_ref=1 / me_range=16 / chroma_me=1 / trellis=2 / 8x8dct=1 / cqm=0 / deadzone=21,11 / chroma_qp_offset=-4 / threads=6 / nr=0 / decimate=1 / mbaff=0 / bframes=5 / b_pyramid=1 / b_adapt=2 / b_bias=0 / direct=1 / wpredb=1 / keyint=250 / keyint_min=25 / scenecut=40 / rc=2pass / bitrate=5423 / ratetol=1.0 / qcomp=0.60 / qpmin=10 / qpmax=34 / qpstep=4 / cplxblur=20.0 / qblur=0.5 / vbv_maxrate=30000 / vbv_bufsize=30000 / ip_ratio=1.40 / pb_ratio=1.30 / aq=1:0.70
Language : English
Default : Yes
Forced : No
DURATION : 01:43:00.086000000
NUMBER_OF_FRAMES : 148174
NUMBER_OF_BYTES : 4188348956
_STATISTICS_WRITING_APP : v8.5.1 ('Where you lead I will follow') 64bit
_STATISTICS_WRITING_DATE_UTC : 2017-01-21 07:44:43
_STATISTICS_TAGS : BPS DURATION NUMBER_OF_FRAMES NUMBER_OF_BYTES

Audio #1
ID : 2
Format :
Format/Info : Digital Theater Systems
Mode : 16
Format settings, Endianness : Big
Codec ID : A_DTS
Duration : 1h 43mn
Bit rate mode : Constant
Bit rate : 1 510 Kbps
Channel(s) : 6 channels
Channel positions : Front: L C R, Side: L R, LFE
Sampling rate : 48.0 KHz
Bit depth : 24 bits
Compression mode : Lossy
Stream size : 1.09 GiB (18%)
Title : 5.1 1510 kbps [UA-MVO]
Language : Ukrainian
Default : Yes
Forced : Yes

Audio #2
ID : 3
Format :
Format/Info : Digital Theater Systems
Mode : 16
Format settings, Endianness : Big
Codec ID : A_DTS
Duration : 1h 43mn
Bit rate mode : Constant
Bit rate : 1 510 Kbps
Channel(s) : 6 channels
Channel positions : Front: L C R, Side: L R, LFE
Sampling rate : 48.0 KHz
Bit depth : 24 bits
Compression mode : Lossy
Stream size : 1.09 GiB (18%)
Title : 5.1 1510 kbps [Original]
Language : English
Default : No
Forced : No

Text #1
ID : 4
Format : UTF-8
Codec ID : S_TEXT/UTF8
Codec ID/Info : UTF-8 Plain Text
Language : English
Default : Yes
Forced : No

Text #2
ID : 5
Format :
Codec ID : S_TEXT/
Codec ID/Info : Advanced Sub Station Alpha
Compression mode : Lossless
Language : Danish
Default : No
Forced : No

Text #3
ID : 6
Format :
Codec ID : S_TEXT/
Codec ID/Info : Advanced Sub Station Alpha
Compression mode : Lossless
Language : Finnish
Default : No
Forced : No

Text #4
ID : 7
Format :
Codec ID : S_TEXT/
Codec ID/Info : Advanced Sub Station Alpha
Compression mode : Lossless
Language : French
Default : No
Forced : No

Text #5
ID : 8
Format :
Codec ID : S_TEXT/
Codec ID/Info : Advanced Sub Station Alpha
Compression mode : Lossless
Language : German
Default : No
Forced : No

Text #6
ID : 9
Format :
Codec ID : S_TEXT/
Codec ID/Info : Advanced Sub Station Alpha
Compression mode : Lossless
Language : Romanian
Default : No
Forced : No

Text #7
ID : 10
Format :
Codec ID : S_TEXT/
Codec ID/Info : Advanced Sub Station Alpha
Compression mode : Lossless
Language : Spanish
Default : No
Forced : No
Скріншоти:





Джерело: &
Особиста оцінка: 8 - мені сподобалося
Вихідний день Ферріса Бюллера / Ferris Bueller's day off (1986) 720p Ukr/Eng | Sub Multi


Срібний реліз (на рейтинг впливає 50% завантаженого)
 Трекер:    Зареєстрований   

Завантажити / скачати фільм українською



відео для новачків



 Зареєстрований:   2017-01-21 13:18
 Розмір:   6.08 GB 
 Оцінка фільму:   9.6/10 (Голосів: 17)
   
DaemanUhr 
Новенький


З нами з: 17.11.09
Востаннє: 16.10.19
Повідомлень: 9

2017-01-21 10:49  
Класне кіно
igor911 
Модератор відео


З нами з: 18.01.08
Востаннє: 18.10.19
Повідомлень: 13537

2017-01-21 22:52  
Чудовий фільм.
[email protected] 
VIP


З нами з: 25.03.17
Востаннє: 17.10.19
Повідомлень: 365

2018-06-05 22:34  
Прикольний фіпьм
ngxwinger 
Свій


З нами з: 19.01.14
Востаннє: 18.10.19
Повідомлень: 53

2018-06-15 00:28  
Я реально закайфував від перегляду! Це ще те кіно, коли гумор був дійсно смішним, а актори грали, а не просто з розкритим ротом були весь час))
splinsei 
Свій


З нами з: 19.01.16
Востаннє: 17.10.19
Повідомлень: 52

2019-03-17 19:58  
Класика 80-х, що просто пронизана духом свободи
Soncezahyst 
Частий відвідувач


З нами з: 12.05.19
Востаннє: 18.10.19
Повідомлень: 32

2019-05-23 12:15  
Супер. Це рiвень кiно, пiсля перегляду яркого було бажання жили та дiяти! Авжешь щоб це зрозумити його потрiбно було дивитись у дев'яностi у вiцi пiдлiтка
+380954897458 
VIP


З нами з: 02.06.17
Востаннє: 18.10.19
Повідомлень: 451

2019-05-23 23:26  
Soncezahyst
Зараз, у віці далекому від підліткового, воно теж нічогенько так "вставляє". Є універсальні фільми, не підвладні часу. Неважливо скільки тобі за паспортом, ти відчуваєш саме ті емоції, які потрібно відчувати. В цьому і геній Джона Х'юза!

Ваш часовий пояс: GMT + 2 Години

Нова тема   Відповісти