Ідеальна Втеча / A Perfect Getaway [Theatrical Cut] (2009) 1080p Ukr/Eng

Нові коментарі

Нова тема   Відповісти
Автор Повідомлення
staf777 
Відео Гуртом - підтримка та поширення
Відео Гуртом - підтримка та поширення


З нами з: 16.11.16
Востаннє: 16.08.17
Повідомлень: 522

2017-01-19 23:37  
Ідеальна Втеча / A Perfect Getaway [Theatrical Cut] (2009) 1080p Ukr/Eng


Ідеальна Втеча / A Perfect Getaway [Theatrical Cut] (2009) 1080p Ukr/Eng

Жанр: трилер, містика
Країна: США



Кінокомпанія: Davis Entertainment
Режисер: Девід Туі / David Twohy
Актори: Мілла Йовович / Milla Jovovich, Стів Зан / Steve Zahn, Тімоті Оліфант / Timothy Olyphant, Кіле Санчес / Kiele Sanchez, Марлі Шелтон / Marley Shelton, Кріс Хемсворт / Chris Hemsworth та інші

Сюжет:
Здається, що для молодят провести свій медовий місяць на Гаваях – це мрія, що стала реальністю. Що може затьмарити це казкове щастя? Може повідомлення про те, що на острові орудують серійні вбивці? Але ні, не може бути, щоб якісь там повідомлення перешкодили добре провести їх медовий місяць.
Прибувши на острів, наречені знайомляться з іншими молодятами. Комфортабельний готель, чарівна природа, час повний щастя. Але жорстока реальність дуже швидко наздоганяє героїв. Виявилось, що кілери справжні і шляхів порятунку практично немає...


Тривалість: 01:37:08
Якість: 1080p

Відео:
кодек:
розмір кадру: 1920 х 816
бітрейт: 11000 кб/с

Аудіо # 1:
мова: українська
переклад: багатоголосий закадровий
кодек: 5.1
бітрейт: 384 кб/с

Аудіо # 2:
мова: англійська
переклад: оригінал
кодек: 5.1
бітрейт:1509 кб/с
Info
General
Unique ID : 239373502244468660268853623948159499550 (0xB415A8DAA9F721A2A6727FFD6F003D1E)
Complete name : E:\HDCLUB\A Perfect Getaway [Theatrical Cut] (2009) [Ukr,Eng] 1080p [Hurtom].
Format :
Format version : Version 4 / Version 2
File size : 8.75 GiB
Duration : 1h 37mn
Overall bit rate : 12.9 Mbps
Movie name : A Perfect Getaway [Theatrical Cut] (2009) [Ukr,Eng] 1080p [Hurtom]
Encoded date : UTC 2017-01-20 11:28:04
Writing application : mkvmerge v8.5.1 ('Where you lead I will follow') 64bit
Writing library : libebml v1.3.3 + libmatroska v1.4.4
DURATION : 01:37:07.531000000
NUMBER_OF_FRAMES : 546330
NUMBER_OF_BYTES : 1099215960
_STATISTICS_WRITING_APP : mkvmerge v8.5.1 ('Where you lead I will follow') 64bit
_STATISTICS_WRITING_DATE_UTC : 2017-01-20 11:28:04
_STATISTICS_TAGS : BPS DURATION NUMBER_OF_FRAMES NUMBER_OF_BYTES

Video
ID : 1
Format : AVC
Format/Info : Advanced Video Codec
Format profile : [email protected]
Format settings, CABAC : Yes
Format settings, ReFrames : 5 frames
Codec ID : V_MPEG4/ISO/AVC
Duration : 1h 37mn
Bit rate : 11.0 Mbps
Width : 1 920 pixels
Height : 816 pixels
Display aspect ratio : 2.35:1
Frame rate mode : Constant
Frame rate : 23.976 fps
Color space : YUV
Chroma subsampling : 4:2:0
Bit depth : 8 bits
Scan type : Progressive
Bits/(Pixel*Frame) : 0.293
Stream size : 7.29 GiB (83%)
Title : Release for HURTOM
Writing library : core 79 r1352M d487de4
Encoding settings : cabac=1 / ref=5 / deblock=1:-3:-3 / analyse=0x3:0x113 / me=umh / subme=10 / psy=1 / psy_rd=1.0:0.0 / mixed_ref=1 / me_range=32 / chroma_me=1 / trellis=2 / 8x8dct=1 / cqm=0 / deadzone=21,11 / chroma_qp_offset=-2 / threads=6 / nr=0 / decimate=0 / mbaff=0 / constrained_intra=0 / bframes=6 / b_pyramid=2 / b_adapt=2 / b_bias=0 / direct=3 / wpredb=1 / wpredp=2 / keyint=240 / keyint_min=24 / scenecut=40 / rc=2pass / mbtree=0 / bitrate=10997 / ratetol=1.0 / qcomp=0.60 / qpmin=10 / qpmax=51 / qpstep=4 / cplxblur=20.0 / qblur=0.5 / ip_ratio=1.40 / pb_ratio=1.30 / aq=1:0.80 / pulldown=0 / nal_hrd=0
Language : English
Default : Yes
Forced : No
DURATION : 01:37:07.456000000
NUMBER_OF_FRAMES : 139719
NUMBER_OF_BYTES : 8009938482
_STATISTICS_WRITING_APP : mkvmerge v8.5.1 ('Where you lead I will follow') 64bit
_STATISTICS_WRITING_DATE_UTC : 2017-01-20 11:28:04
_STATISTICS_TAGS : BPS DURATION NUMBER_OF_FRAMES NUMBER_OF_BYTES

Audio #1
ID : 2
Format : AC-3
Format/Info : Audio Coding 3
Mode extension : CM (complete main)
Format settings, Endianness : Big
Codec ID : A_AC3
Duration : 1h 37mn
Bit rate mode : Constant
Bit rate : 384 Kbps
Channel(s) : 6 channels
Channel positions : Front: L C R, Side: L R, LFE
Sampling rate : 48.0 KHz
Bit depth : 16 bits
Compression mode : Lossy
Stream size : 267 MiB (3%)
Title : 5.1 384 kbps [UA-MVO]
Language : Ukrainian
Default : Yes
Forced : Yes

Audio #2
ID : 3
Format :
Format/Info : Digital Theater Systems
Mode : 16
Format settings, Endianness : Big
Codec ID : A_DTS
Duration : 1h 37mn
Bit rate mode : Constant
Bit rate : 1 509 Kbps
Channel(s) : 6 channels
Channel positions : Front: L C R, Side: L R, LFE
Sampling rate : 48.0 KHz
Bit depth : 24 bits
Compression mode : Lossy
Stream size : 1.02 GiB (12%)
Title : 5.1 1510 kbps [ORIGINAL]
Language : English
Default : No
Forced : No

Menu
00:00:00.000 : en:00:00:00.000
00:11:25.018 : en:00:11:25.018
00:25:16.140 : en:00:25:16.140
00:32:28.113 : en:00:32:28.113
00:44:39.594 : en:00:44:39.594
00:53:15.776 : en:00:53:15.776
01:03:47.032 : en:01:03:47.032
01:15:02.957 : en:01:15:02.957
01:23:58.408 : en:01:23:58.408
01:31:05.960 : en:01:31:05.960
Скріншоти



Трейлер
Подяка Neo777 за українську доріжку та Brut за українізований постер
Джерело: &
Особиста оцінка: 0 - не дивився
Ідеальна Втеча / A Perfect Getaway [Theatrical Cut] (2009) 1080p Ukr/Eng


 Трекер:    Зареєстрований   

Завантажити / скачати фільм українською



відео для новачків



 Зареєстрований:   2017-01-20 16:53
 Розмір:   8.75 GB 
 Оцінка фільму:   7.8/10 (Голосів: 4)
   
Інші релізи
   Ідеальна Втеча / A Perfect Getaway (2009) AVC Ukr/Eng | Sub Eng Загора  11 / 0   2.55 GB   2016-04-20 16:36 
   Ідеальна Втеча / A Perfect Getaway (2009) 720p Ukr/Eng | Sub Eng Загора  2 / 0   3.61 GB   2016-04-20 16:27 
   Ідеальна Втеча / A Perfect Getaway (2009) Ukr/Eng Neo777  9 / 0   1.89 GB   2011-03-07 15:17 
   Ідеальна втеча / A Perfect Getaway (2009) fazza  3 / 0   1.37 GB   2009-10-17 07:23 
Bod_zik99 
VIP


З нами з: 28.12.13
Востаннє: 21.08.17
Повідомлень: 1179

2017-01-19 23:42  
Треба Unrated - версію цього фільму.
bot 
робот


З нами з: 30.09.07
Востаннє: 26.05.05
Повідомлень: 17406

2017-01-20 16:52  
Тему перенесено з Анонси релізів до форуму Фільми в HD


staf777

hetzendorf 
Відео Гуртом - підтримка та поширення
Відео Гуртом - підтримка та поширення


З нами з: 23.07.15
Востаннє: 21.08.17
Повідомлень: 402

2017-01-20 18:35  
Bod_zik99 написано:
Треба Unrated - версію цього фільму.

А така існує?

Bod_zik99 
VIP


З нами з: 28.12.13
Востаннє: 21.08.17
Повідомлень: 1179

2017-01-20 18:58  
hetzendorf
Так.
http://www.movie-censorship.com/report.php?ID=2412611
На 12 хв. довша від театралки.

Ваш часовий пояс: GMT + 2 Години

Нова тема   Відповісти