Шерлок (Сезон 1) / Sherlock (Season 1) (2010) 1080p 2xUkr/Eng | Sub Eng

Нові коментарі

Нова тема   Відповісти
Автор Повідомлення
Argentum 
VIP


З нами з: 25.09.11
Востаннє: 02.12.20
Повідомлень: 262

2017-01-19 14:31  
Шерлок (Сезон 1) / Sherlock (Season 1) (2010) 1080p 2xUkr/Eng | Sub Eng


Шерлок (Сезон 1) / Sherlock (Season 1) (2010) 1080p 2xUkr/Eng | Sub Eng


Жанр: детектив
Країна: Велика Британія



Кінокомпанія: BBC
Режисер: Юрос Лін, Пол Мак-Ґіґан
Актори: Бенедикт Камбербетч, Мартін Фріман, Уна Стаббс, Лу Брілі, Руперт Грейвс, Зої Телфорд, Вінетт Робінсон, Джемма Чан, Джині Спарк та інші

Сюжет:
2010 рік. Військовий лікар Джон Ватсон повертається до Лондона після служби в Афганістані. Він став інвалідом після отриманого поранення, і абсолютно не уявляє, як прожити на військову пенсію, а тим паче зняти квартиру. Приятель радить Джону розділити витрати по зніманню квартири з ким-небудь ще. Він зводить його з ексцентричним приватним детективом на ім'я Шерлок, який грає на скрипці і може розповісти про співрозмовника все після двох хвилин спілкування ...


Тривалість: 1 серія: ~01:30 (цілком серій: 3)
Перелік серій
1. Етюд у рожевих тонах / A Study in Pink
Прем'єра: 25 липня 2010 (Україна: 15.01.2012)
Режисер: Пол Маꥳґан.
Сценарій: Стівен Моффат.
Сюжет: поліція розслідує смерть кількох людей, які вочевидь наклали на себе руки, прийнявши отруйну пігулку. Слідчий звертається до неофіційного консультанта Шерлока Холмса. Тим часом, військовий лікар Джон Ватсон, ветеран війни в Афганістані, повернувшись у Лондон, зустрічає свого старго друга і знайомиться з Шерлокомм. Холмс одразу вражає доктора своїми здібностями до аналізу і дедукції.
Основа: «Етюд у багряних тонах».

2. Сліпий банкір / The Blind Banker
Прем'єра: 1 серпня 2010 (Україна: 16.01.2012)
Режисер: Юрус Лін.
Сценарій: Стефен Томпсон.
Сюжет: старий друг Шерлока наймає його розслідувати містичне проникнення в банк у діловій частині Лондона. З'ясовується, що символи, які намальовані на стіні - це закодоване повідомлення одному з працівників банку, якого пізніше знаходять мертвим. Наступного дня помирає журналіст однієї з лондонських газет, і виявляється, що до його смерті також причетні загадкові символи.
Основа: «Танцюючі чоловічки», «Долина жаху» (епізод з книгою).

3. Велика гра / The Great Game
Прем'єра: 8 серпня 2010 (Україна: 17.01.2012)
Режисер: Пол Маꥳґан.
Сценарій: Марк Ґатіс.
Сюжет: Майкрофт намагається вмовити Шерлока взятися за розслідування підозрілої смерті урядового працівника, який був задіяний у дуже секретному проекті міністерства оборони - проект Брюса-Партінгтона. Але Шерлок відмовляється, доручивши цю справу Ватсону. Увагу Холмса привертає дещо інше. Невідомий злочинець розпочинає з ним небезпечну гру, ставки у якій життя безневинних людей.
Основа: «Остання справа Холмса», «Креслення Брюса-Партінгтона», «Морський договір», «П'ять апельсинових зерняток».
Якість: 1080p
Відео:
кодек:
розмір кадру: 1920 х 1080
бітрейт: 12300 кб/с

Аудіо # 1:
мова: українська
переклад: професійний дубльований
кодек: 2.0
бітрейт: 256 кб/с

Аудіо # 2:
мова: українська
переклад: багатоголосий закадровий
кодек: 5.1
бітрейт: 448 кб/с

Аудіо # 3:
мова: англійська
переклад: оригінал
кодек: 5.1
бітрейт: 448 кб/с

Субтитри:
мова: англійська
тип: програмні (м'які)
формат: *.srt
Info
General
Unique ID : 297971847449369246598856870072853408645 (0xE02B4A54F2D69204ED614A77416F2B85)
Complete name : /home/jack/Public/S1/Sherlock. Season 1 (2010) [ukr,eng] 1080p/Sherlock - S01E01 (2010) 1080p [Ukr, Eng].
Format :
Format version : Version 4 / Version 2
File size : 8.26 GiB
Duration : 1h 28mn
Overall bit rate : 13.4 Mbps
Encoded date : UTC 2017-01-21 21:10:10
Writing application : v9.7.1 ('Pandemonium') 64bit
Writing library : libebml v1.3.4 + v1.4.5
Attachments : Cosmos_Light.ttf

Video
ID : 1
Format : AVC
Format/Info : Advanced Video Codec
Format profile : [email protected]
Format settings, CABAC : Yes
Format settings, ReFrames : 4 frames
Codec ID : V_MPEG4/ISO/AVC
Duration : 1h 28mn
Bit rate : 12.3 Mbps
Width : 1 920 pixels
Height : 1 080 pixels
Display aspect ratio : 16:9
Frame rate mode : Constant
Frame rate : 25.000 fps
Color space : YUV
Chroma subsampling : 4:2:0
Bit depth : 8 bits
Scan type : Progressive
Bits/(Pixel*Frame) : 0.237
Stream size : 7.55 GiB (91%)
Writing library : core 105 r1724 b02df7b
Encoding settings : cabac=1 / ref=4 / deblock=1:-3:-3 / analyse=0x3:0x133 / me=umh / subme=10 / psy=1 / psy_rd=1.00:0.00 / mixed_ref=1 / me_range=32 / chroma_me=1 / trellis=2 / 8x8dct=1 / cqm=0 / deadzone=21,11 / fast_pskip=0 / chroma_qp_offset=-2 / threads=12 / sliced_threads=0 / nr=0 / decimate=0 / interlaced=0 / constrained_intra=0 / bframes=7 / b_pyramid=2 / b_adapt=2 / b_bias=0 / direct=3 / weightb=1 / open_gop=0 / weightp=2 / keyint=250 / keyint_min=25 / scenecut=40 / intra_refresh=0 / rc=2pass / mbtree=0 / bitrate=12275 / ratetol=1.0 / qcomp=0.60 / qpmin=10 / qpmax=51 / qpstep=4 / cplxblur=20.0 / qblur=0.5 / ip_ratio=1.40 / pb_ratio=1.30 / aq=2:1.00
Language : English
Default : Yes
Forced : No

Audio #1
ID : 2
Format : AC-3
Format/Info : Audio Coding 3
Mode extension : CM (complete main)
Format settings, Endianness : Big
Codec ID : A_AC3
Duration : 1h 28mn
Bit rate mode : Constant
Bit rate : 256 Kbps
Channel(s) : 2 channels
Channel positions : Front: L R
Sampling rate : 48.0 KHz
Frame rate : 31.250 fps (1536 spf)
Compression mode : Lossy
Stream size : 161 MiB (2%)
Title : 1+1
Language : Ukrainian
Default : Yes
Forced : No

Audio #2
ID : 3
Format : AC-3
Format/Info : Audio Coding 3
Mode extension : CM (complete main)
Format settings, Endianness : Big
Codec ID : A_AC3
Duration : 1h 28mn
Bit rate mode : Constant
Bit rate : 448 Kbps
Channel(s) : 6 channels
Channel positions : Front: L C R, Side: L R, LFE
Sampling rate : 48.0 KHz
Frame rate : 31.250 fps (1536 spf)
Compression mode : Lossy
Stream size : 282 MiB (3%)
Title : Baibako
Language : Ukrainian
Default : No
Forced : No

Audio #3
ID : 4
Format : AC-3
Format/Info : Audio Coding 3
Mode extension : CM (complete main)
Format settings, Endianness : Big
Codec ID : A_AC3
Duration : 1h 28mn
Bit rate mode : Constant
Bit rate : 448 Kbps
Channel(s) : 6 channels
Channel positions : Front: L C R, Side: L R, LFE
Sampling rate : 48.0 KHz
Frame rate : 31.250 fps (1536 spf)
Compression mode : Lossy
Stream size : 282 MiB (3%)
Title : English
Language : English
Default : No
Forced : No

Text
ID : 5
Format : UTF-8
Codec ID : S_TEXT/UTF8
Codec ID/Info : UTF-8 Plain Text
Duration : 1h 25mn
Bit rate : 80 bps
Count of elements : 1377
Stream size : 50.3 KiB (0%)
Language : English
Default : No
Forced : No
Скріншоти


Джерело: &
Особиста оцінка: 10 - без зайвих вагань рекомендую всім!



Авторський реліз (завантажувати можна без реєстрації)
 Трекер:    Зареєстрований   

Завантажити / скачати серіал українською



відео для новачків



 Зареєстрований:   2017-01-22 00:14
 Розмір:   24.92 GB 
 Оцінка серіалу:   10/10 (Голосів: 48)
   
Patriot_ukr 
VIP


З нами з: 06.04.15
Востаннє: 20.11.20
Повідомлень: 2258

2017-01-19 22:05  
Argentum написано:
Джерело: Рутрацкер.орґ

І "Гуртом", записи ж звідсіля.

11FrYkT 
Модератор відео


З нами з: 20.02.11
Востаннє: 02.12.20
Повідомлень: 7045

2017-01-21 08:46  
Argentum , і чому було не додати 2 укр доріжку?
Argentum 
VIP


З нами з: 25.09.11
Востаннє: 02.12.20
Повідомлень: 262

2017-01-21 09:16  
11FrYkT
Цитата:
Argentum , і чому було не додати 2 укр доріжку?

Якщо буде запит обов'язково додам

Argentum 
VIP


З нами з: 25.09.11
Востаннє: 02.12.20
Повідомлень: 262

2017-01-22 00:17  
Реліз оновлено! Додав озвучку від BaibaKo та субтитри англійською
batch 
Новенький


З нами з: 09.11.17
Востаннє: 03.02.20
Повідомлень: 1

2019-04-05 21:01  
Може хто підкаже, де ще можна знайти цей серіал з українською озвучкою?
Бо тут роздача відсутня Sad (1).

igor911 
Модератор відео


З нами з: 18.01.08
Востаннє: 02.12.20
Повідомлень: 15084

2019-04-06 08:49  
batch, тут вдосталь сідів (9) для нормального завантаження. Інші релізи можна знайти в пошуку.
Neytreenor 
Відео Гуртом - запис з ТБ
Відео Гуртом - запис з ТБ


З нами з: 03.04.11
Востаннє: 02.12.20
Повідомлень: 2913

2019-04-06 09:47  
batch написано:
Рейтинг: 0.01

Справа у рейтингу, треба мати хоча б 0.15, щоб можна було завантажити. Поки можеш піднімати рейтинг авторськими роздачами, їх наче можна без обмежень завантажувати.

P.S. до модераторів - тут є озвучення Baibako, чому роздача тоді не авторська?

igor911 
Модератор відео


З нами з: 18.01.08
Востаннє: 02.12.20
Повідомлень: 15084

2019-04-06 12:41  
Neytreenor написано:
чому роздача тоді не авторська?

виправив

kris.shulepa 
Новенький


З нами з: 16.09.19
Востаннє: 01.09.20
Повідомлень: 1

2019-12-17 10:50  
А можна саби ще і на українській? Щоб одночасно з англійськими показувало? Я так англійську вчу, дуже треба. Дякую наперед
igor911 
Модератор відео


З нами з: 18.01.08
Востаннє: 02.12.20
Повідомлень: 15084

2019-12-17 10:54  
kris.shulepa написано:
А можна саби ще і на українській? Щоб одночасно з англійськими показувало? Я так англійську вчу, дуже треба. Дякую наперед

Можна. Можете зробити самі і додати посилання сюди - кажуть дуже корисно для навчання буде.

EUPHY 
Новенький


З нами з: 19.05.17
Востаннє: 25.11.20
Повідомлень: 1

2020-02-29 16:38  
гарний серіал
Ваш часовий пояс: GMT + 2 Години

Нова тема   Відповісти