Сила волі / Гонка / Race (2016) 720p Ukr/Eng | Sub Eng

Нові коментарі

Нова тема   Відповісти
Автор Повідомлення
Anonymous 







2017-01-19 13:36  
Сила волі / Гонка / Race (2016) 720p Ukr/Eng | Sub Eng


Жанр: біографічний, драма, спорт
Країна: Канада, Німеччина



Кінокомпанія: Forecast Pictures, Jesse Race Productions Quebec, JoBro Productions & Film Finance
Режисер: Стівен Гопкінс / Stephen Hopkins
Актори: Стефан Джеймс / Stephan James, Джейсон Судейкіс / Jason Sudeikis, Елі Ґорі / Eli Goree, Шаніс Бентон / Shanice Banton, Керіс ван Гаутен / Carice van Houten, Джеремі Айронс / Jeremy Irons, Вільям Герт / William Hurt, Девід Кросс / David Kross, Джонатан Гіґґінс / Jonathan Higgins, Тоні Кьорран / Tony Curran, Аманда Крю / Amanda Crew, Барнабі Мечурат / Barnaby Metschurat, Ларрі Дей / Larry Day, Адріан Цвікер / Adrian Zwicker та інші

Сюжет:
Історія легендарного темношкірого атлета Джесі Овенса, чия неймовірна завзятість привела його на Олімпійські ігри 1936 року в нацистському Берліні. Перешкоди і спокуси на його шляху - це ніщо в порівнянні з грандіозним забігом, за яким слідкував увесь світ. Затамувавши подих, одні сподівалися на перемогу Джессі як на символ справедливості і гідності, а інші жадали його поразки в ім'я тріумфу ідеології. Кілька секунд - і Джессі увірвався в історію, кинувши зухвалий виклик самому Гітлеру.


Рейтинг MPAA: PG-13 - дітям до 13 років перегляд не бажаний
Вікова категорія: 12+

Тривалість: 02:14:27
Якість: 720p
Відео:
кодек:
розмір кадру: 1280 x 546
бітрейт: 5389 кб/с [crf=15.4]

Аудіо # 1:
мова: українська
переклад: багатоголосий закадровий
кодек: 2.0
бітрейт: 192 кб/с

Аудіо # 2:
мова: англійська
переклад: оригінал
кодек: 5.1
бітрейт: 640 кб/с

Субтитри # 1:
мова: українська (форсовані)
тип: програмні (м'які)
формат: *.srt

Субтитри # 2-4:
мова: англійська (форсовані, повні, SDH)
тип: програмні (м'які)
формат: *.srt

Збережено оригінальні розділи, як на Blu-ray
Info
Код:
Format                      :
Format version              : Version 4 / Version 2
File size                   : 5.85 GiB
Duration                    : 2 h 14 min
Overall bit rate            : 6 224 kb/s

Video
ID                          : 1
Format                      : AVC
Format/Info                 : Advanced Video Codec
Format profile              : [email protected]
Format settings, CABAC      : Yes
Format settings, ReFrames   : 11 frames
Codec ID                    : V_MPEG4/ISO/AVC
Duration                    : 2 h 14 min
Bit rate                    : 5 389 kb/s
Width                       : 1 280 pixels
Height                      : 546 pixels
Display aspect ratio        : 2.35:1
Frame rate mode             : Constant
Frame rate                  : 23.976 (24000/1001) FPS
Color space                 : YUV
Chroma subsampling          : 4:2:0
Bit depth                   : 8 bits
Scan type                   : Progressive
Bits/(Pixel*Frame)          : 0.322
Stream size                 : 5.06 GiB (87%)
Title                       : Сила волі / Гонка / Race (2016) 720p [Tonik]
Writing library             : core 148 r2705+54 9f484c1 t_mod_Custom [[email protected] X86_64]
Encoding settings           : cabac=1 / ref=11 / deblock=1:-3:-3 / analyse=0x3:0x133 / me=umh / subme=10 / psy=1 / fade_compensate=0.00 / psy_rd=1.00:0.00 / mixed_ref=1 / me_range=32 / chroma_me=1 / trellis=2 / 8x8dct=1 / cqm=0 / deadzone=21,11 / fast_pskip=0 / chroma_qp_offset=-2 / threads=8 / lookahead_threads=1 / sliced_threads=0 / nr=0 / decimate=0 / interlaced=0 / bluray_compat=0 / constrained_intra=0 / fgo=0 / bframes=8 / b_pyramid=2 / b_adapt=2 / b_bias=0 / direct=3 / weightb=1 / open_gop=0 / weightp=2 / keyint=250 / keyint_min=23 / scenecut=40 / intra_refresh=0 / rc_lookahead=150 / rc=crf / mbtree=0 / crf=15.4000 / qcomp=0.60 / qpmin=0:0:0 / qpmax=69:69:69 / qpstep=4 / vbv_maxrate=50000 / vbv_bufsize=62500 / crf_max=0.0 / nal_hrd=none / filler=0 / ip_ratio=1.30 / pb_ratio=1.20 / aq=3:0.80 / aq-sensitivity=10.00 / aq-factor=1.00:1.00:1.00 / aq2=0 / aq3=0
Language                    : English
Default                     : Yes
Forced                      : No
Color range                 : Limited
Matrix coefficients         : BT.709

Audio #1
ID                          : 2
Format                      : AC-3
Format/Info                 : Audio Coding 3
Mode extension              : CM (complete main)
Format settings, Endianness : Big
Codec ID                    : A_AC3
Duration                    : 2 h 14 min
Bit rate mode               : Constant
Bit rate                    : 192 kb/s
Channel(s)                  : 2 channels
Channel positions           : Front: L R
Sampling rate               : 48.0 kHz
Frame rate                  : 31.250 FPS (1536 spf)
Bit depth                   : 16 bits
Compression mode            : Lossy
Stream size                 : 185 MiB (3%)
Title                       : MVO [NLO] 2.0 192 Kbps [Hurtom-Gelios,slavik_v_z]
Language                    : Ukrainian
Default                     : Yes
Forced                      : Yes

Audio #2
ID                          : 3
Format                      : AC-3
Format/Info                 : Audio Coding 3
Mode extension              : CM (complete main)
Format settings, Endianness : Big
Codec ID                    : A_AC3
Duration                    : 2 h 14 min
Bit rate mode               : Constant
Bit rate                    : 640 kb/s
Channel(s)                  : 6 channels
Channel positions           : Front: L C R, Side: L R, LFE
Sampling rate               : 48.0 kHz
Frame rate                  : 31.250 FPS (1536 spf)
Bit depth                   : 16 bits
Compression mode            : Lossy
Stream size                 : 615 MiB (10%)
Title                       : Original, 5.1 640 Kbps
Language                    : English
Default                     : No
Forced                      : No

Text #1
ID                          : 4
Format                      : UTF-8
Codec ID                    : S_TEXT/UTF8
Codec ID/Info               : UTF-8 Plain Text
Duration                    : 3 s 887 ms
Bit rate                    : 310 b/s
Count of elements           : 2
Stream size                 : 151 Bytes (0%)
Title                       : Ukr Forced
Language                    : Ukrainian
Default                     : Yes
Forced                      : Yes

Text #2
ID                          : 5
Format                      : UTF-8
Codec ID                    : S_TEXT/UTF8
Codec ID/Info               : UTF-8 Plain Text
Duration                    : 1 h 26 min
Bit rate                    : 2 b/s
Count of elements           : 51
Stream size                 : 1.70 KiB (0%)
Title                       : Eng Forced
Language                    : English
Default                     : No
Forced                      : No

Text #3
ID                          : 6
Format                      : UTF-8
Codec ID                    : S_TEXT/UTF8
Codec ID/Info               : UTF-8 Plain Text
Duration                    : 2 h 3 min
Bit rate                    : 57 b/s
Count of elements           : 1658
Stream size                 : 52.1 KiB (0%)
Title                       : Eng Full
Language                    : English
Default                     : No
Forced                      : No

Text #4
ID                          : 7
Format                      : UTF-8
Codec ID                    : S_TEXT/UTF8
Codec ID/Info               : UTF-8 Plain Text
Duration                    : 2 h 4 min
Bit rate                    : 65 b/s
Count of elements           : 2007
Stream size                 : 59.5 KiB (0%)
Title                       : Eng SDH
Language                    : English
Default                     : No
Forced                      : No

Menu
00:00:00.000                : en:Chapter 1
00:05:30.747                : en:Chapter 2
00:13:49.454                : en:Chapter 3
00:21:24.658                : en:Chapter 4
00:31:46.154                : en:Chapter 5
00:38:00.570                : en:Chapter 6
00:44:47.560                : en:Chapter 7
00:51:13.779                : en:Chapter 8
00:56:31.888                : en:Chapter 9
01:03:45.739                : en:Chapter 10
01:09:46.265                : en:Chapter 11
01:15:48.544                : en:Chapter 12
01:19:37.398                : en:Chapter 13
01:27:43.717                : en:Chapter 14
01:33:55.463                : en:Chapter 15
01:39:49.859                : en:Chapter 16
01:47:22.311                : en:Chapter 17
01:52:07.137                : en:Chapter 18
01:57:30.835                : en:Chapter 19
02:05:34.110                : en:Chapter 20


Джерело: &
Подяка п.slavik_v_z та п.Gelios'у за українську доріжку


 Трекер:    Зареєстрований   

Завантажити / скачати фільм українською



відео для новачків



 Зареєстрований:   2017-01-19 15:59
 Розмір:   5.85 GB 
 Оцінка фільму:   6.3/10 (Голосів: 30)
   
Інші релізи
   Сила волі / Гонка / Race (2016) Remux 1080p Ukr/Eng | Sub Eng staf777  3 / 0   32.25 GB   2019-04-12 11:55 
   Сила волі / Гонка / Race (2016) AVC Ukr/Eng | Sub Eng 11FrYkT  17 / 0   2.42 GB   2019-04-11 10:48 
   Сила волі / Гонка / Race (2016) 1080 Ukr/Eng | Sub Eng Electroz  3 / 0   15.66 GB   2017-01-19 17:15 
   Сила волі / Гонка / Race (2016) Gelios  4 / 0   1.45 GB   2017-01-19 13:03 
casper101 
VIP


З нами з: 03.12.09
Востаннє: 19.04.19
Повідомлень: 393

2018-01-10 11:05  
цікавий фільм.
vadoos 
Частий відвідувач


З нами з: 24.06.12
Востаннє: 14.04.19
Повідомлень: 27

2019-04-14 11:23  
гарний фiльм
Ваш часовий пояс: GMT + 2 Години

Нова тема   Відповісти