Людина у високому замку (Сезон 2) / The Man in the High Castle (Season 2) (2016) 1080p Ukr/Eng | Sub Eng

Нові коментарі

Нова тема   Відповісти
Автор Повідомлення
НеЗупиняйПродакшн 
Відео Гуртом - озвучення
Відео Гуртом - озвучення


З нами з: 28.07.15
Востаннє: 24.09.17
Повідомлень: 366

2017-01-19 00:08  
Людина у високому замку (Сезон 2) / The Man in the High Castle (Season 2) (2016) 1080p Ukr/Eng | Sub Eng

Людина у високому замку (Сезон 2) / The Man in the High Castle (Season 2) (2016) 1080p Ukr/Eng | Sub Eng


Жанр: фантастика, драма, трилер
Країна: США



Режисер: Девід Семел
Актори: Алекса Давалос, Руперт Еванс, Люк Клейнтенк, DJ Куолс, Брінен Браун, Джоель де ла Фуенте, Каллум Кіт Ренні, Керрі-Хіроюкі Таґава та інші

Сюжет:
Погляд на альтернативну історію Північної Америки. Яким могло би бути життя американців, якби Другу світову війну виграли не Союзники, а Вісь. Події розгортаються у США 60-х років.


Тривалість: 1 серія: ~ 01:00:00 (цілком серій: 10)
Перелік серій
1. Печера тигра
2. Непротоптана стежка
3. Мандрівники
4. Ескалація
5. Пригнись та сховайся
6. Кінцуґі
7. Країна посмішок
8. Довгий язик
9. Детонація
10. Радіоактивні опади
Якість: 1080
Відео:
кодек:
розмір кадру: 1920 х 1080
бітрейт: 10.6 Мб/с

Аудіо 1:
мова: українська (професійний багатоголосий закадровий)
кодек: AC-3 5.1
бітрейт: 640 кб/с

Озвучено студією НеЗупиняйПродакшн


Аудіо 2:
мова: англійська (оригінал)
кодек: AC-3 5.1
бітрейт: 640 кб/с

Субтитри 1:
мова: англійська
тип: програмні (м'які)
формат: *.srt

Субтитри 2:
мова: англійська (для людей із вадами слуху)
тип: програмні (м'які)
формат: *.srt
Скріншоти





Info

Video
ID : 1
Format : AVC
Format/Info : Advanced Video Codec
Format profile : [email protected]
Format settings, CABAC : Yes
Format settings, ReFrames : 4 frames
Codec ID : V_MPEG4/ISO/AVC
Duration : 57mn 4s
Bit rate : 10.6 Mbps
Width : 1 920 pixels
Height : 1 080 pixels
Display aspect ratio : 16:9
Frame rate mode : Constant
Frame rate : 23.976 (24000/1001) fps
Color space : YUV
Chroma subsampling : 4:2:0
Bit depth : 8 bits
Scan type : Progressive
Bits/(Pixel*Frame) : 0.214
Stream size : 4.24 GiB (92%)
Writing library : core 148 r2744+8 b97ae06 / tmod bb0ae40 X86_64
Encoding settings : cabac=1 / ref=4 / deblock=1:-3:-3 / analyse=0x3:0x133 / me=umh / subme=11 / psy=1 / fade_compensate=0.00 / psy_rd=1.15:0.05 / mixed_ref=1 / me_range=48 / chroma_me=1 / trellis=2 / 8x8dct=1 / cqm=0 / deadzone=6,6 / fast_pskip=0 / chroma_qp_offset=-3 / threads=30 / lookahead_threads=7 / sliced_threads=0 / nr=0 / decimate=0 / interlaced=0 / bluray_compat=0 / constrained_intra=0 / fgo=0 / bframes=10 / b_pyramid=2 / b_adapt=2 / b_bias=0 / direct=3 / weightb=1 / open_gop=0 / weightp=2 / keyint=250 / keyint_min=23 / scenecut=40 / intra_refresh=0 / rc=crf / mbtree=0 / crf=17.0000 / qcomp=0.70 / qpmin=0:0:0 / qpmax=69:69:69 / qpstep=4 / ip_ratio=1.10 / pb_ratio=1.10 / aq=3:0.70 / aq-sensitivity=10.00 / aq-factor=1.00:1.00:1.00 / aq2=0 / aq3=0
Language : English
Default : Yes
Forced : No

Audio #1
ID : 2
Format : E-AC-3
Format/Info : Audio Coding 3
Format settings, Endianness : Big
Codec ID : A_EAC3
Duration : -
Bit rate mode : Constant
Bit rate : 640 Kbps
Channel(s) : 6 channels
Channel positions : Front: L C R, Side: L R, LFE
Sampling rate : 48.0 KHz
Frame rate : -
Compression mode : Lossy
Stream size : -
Language : Ukrainian
Default : Yes
Forced : No

Audio #2
ID : 2
Format : E-AC-3
Format/Info : Audio Coding 3
Format settings, Endianness : Big
Codec ID : A_EAC3
Duration : 57mn 4s
Bit rate mode : Constant
Bit rate : 640 Kbps
Channel(s) : 6 channels
Channel positions : Front: L C R, Side: L R, LFE
Sampling rate : 48.0 KHz
Frame rate : 187.500 fps (256 spf)
Compression mode : Lossy
Stream size : 261 MiB (6%)
Language : English
Default : No
Forced : No

Text #1
ID : 3
Format : UTF-8
Codec ID : S_TEXT/UTF8
Codec ID/Info : UTF-8 Plain Text
Title : English
Language : English
Default : No
Forced : No

Text #2
ID : 4
Format : UTF-8
Codec ID : S_TEXT/UTF8
Codec ID/Info : UTF-8 Plain Text
Title : English (SDH)
Language : English
Default : No
Forced : No




Авторський реліз (завантажувати можна без реєстрації)
 Трекер:    Зареєстрований   

Завантажити / скачати серіал українською



відео для новачків



 Зареєстрований:   2017-01-26 22:39
 Розмір:   50.67 GB 
 Оцінка серіалу:   9.9/10 (Голосів: 27)
   
The_Marlboro 
Відео Гуртом - субтитрування
Відео Гуртом - субтитрування


З нами з: 23.05.10
Востаннє: 23.09.17
Повідомлень: 2967

2017-01-19 11:02  
До, речі, можна підтримати видання книги, за якою знятий серіал Філіп К. Дік "Людина у високому замку"
Ваш часовий пояс: GMT + 2 Години

Нова тема   Відповісти