Людожер / Ravenous (1999) Ukr/Eng | Sub Eng

Нові коментарі

Нова тема   Відповісти
Автор Повідомлення
Anonymous 







2017-01-18 22:03  
Людожер / Ravenous (1999) Ukr/Eng | Sub Eng



Жанр: драма, жахи, трилер
Країна: США, Велика Британія, Чехія



Кінокомпанія: ETIC Films, Engulf & Devour Productions Inc., Fox 2000 Pictures, Heyday Films, Twentieth Century Fox Film Corporation
Режисер: Антонія Бьорд / Antonia Bird
Актори: Ґай Пірс / Guy Pearce, Роберт Карлайл / Robert Carlyle, Девід Аркетт / David Arquette, Джеремі Девіс / Jeremy Davies, Джефрі Джонс / Jeffrey Jones та інші

Сюжет:
Дія фільму відбувається в 1847 році в період війни Америки з Мексикою. Капітана Джона Бойда вшановують і нагороджують різними медалями, однак він не радий цим обставинам. Причиною його відзначення стало захоплення ставки противника поодинці, але тільки він один знає всі обставини такого сміливого вчинку - він просто злякався, кинув зброю і прикинувся мертвим. Так він пролежав тривалий час серед мертвих товаришів, а згодом у стані афекту повбивав усіх ворогів. Однак просування по службі Джон не отримав, замість цього його направляють в самотній форт в горах Каліфорнії.
Через деякий час у форт приходить обірваний і зголоднілий чоловік на ім'я Калхун. З його історії стає ясно, що він був членом каравану, який вів провідник. Провідник заблукав і люди, у зв'язку з наступом зими, оселилися в печері. Однак запасів їжі було мало і в той момент коли вони скінчилися, люди почали поїдати один одного. Калхуну вдалося втекти.


Рейтинг MPAA: R - особам до 17 років обов'язкова присутність батьків або дорослого опікуна
Вікова категорія: 16+

Тривалість: 01:40:55
Якість:
Відео:
кодек:
розмір кадру: 720 х 304
бітрейт: 2162 кб/с

Аудіо # 1:
мова: українська
переклад: багатоголосий закадровий | Так Треба Продакшн
кодек: 2.0
бітрейт: 192 кб/с

Аудіо # 2:
мова: англійська
переклад: оригінал
кодек: 5.1
бітрейт: 448 кб/с

Субтитри:
мова: англійська - завантажити
тип: програмні (м'які)
формат: *.srt
Info
Код:
Format                      : AVI
Format/Info                 : Audio Video Interleave
File size                   : 1.98 GiB
Duration                    : 1 h 40 min
Overall bit rate            : 2 816 kb/s

Video
ID                          : 0
Format                      : MPEG-4 Visual
Format profile              : Advanced [email protected]
Format settings, BVOP       : 1
Format settings, QPel       : No
Format settings, GMC        : No warppoints
Format settings, Matrix     : Custom
Codec ID                    :
Codec ID/Hint               :
Duration                    : 1 h 40 min
Bit rate                    : 2 162 kb/s
Width                       : 720 pixels
Height                      : 304 pixels
Display aspect ratio        : 2.35:1
Frame rate                  : 23.976 (24000/1001) FPS
Original frame rate         : 23.976 (23976/1000) FPS
Color space                 : YUV
Chroma subsampling          : 4:2:0
Bit depth                   : 8 bits
Scan type                   : Progressive
Compression mode            : Lossy
Bits/(Pixel*Frame)          : 0.412
Stream size                 : 1.52 GiB (77%)
Writing library             : 73

Audio #1
ID                          : 1
Format                      : AC-3
Format/Info                 : Audio Coding 3
Mode extension              : CM (complete main)
Format settings, Endianness : Big
Codec ID                    : 2000
Duration                    : 1 h 40 min
Bit rate mode               : Constant
Bit rate                    : 192 kb/s
Channel(s)                  : 2 channels
Channel positions           : Front: L R
Sampling rate               : 48.0 kHz
Frame rate                  : 31.250 FPS (1536 spf)
Bit depth                   : 16 bits
Compression mode            : Lossy
Stream size                 : 139 MiB (7%)
Alignment                   : Split accross interleaves
Interleave, duration        : 42  ms (1.00 video frame)
Interleave, preload duratio : 500  ms

Audio #2
ID                          : 2
Format                      : AC-3
Format/Info                 : Audio Coding 3
Mode extension              : CM (complete main)
Format settings, Endianness : Big
Codec ID                    : 2000
Duration                    : 1 h 40 min
Bit rate mode               : Constant
Bit rate                    : 448 kb/s
Channel(s)                  : 6 channels
Channel positions           : Front: L C R, Side: L R, LFE
Sampling rate               : 48.0 kHz
Frame rate                  : 31.250 FPS (1536 spf)
Bit depth                   : 16 bits
Compression mode            : Lossy
Stream size                 : 323 MiB (16%)
Alignment                   : Split accross interleaves
Interleave, duration        : 42  ms (1.00 video frame)
Interleave, preload duratio : 500  ms
Title                       : ENG


Джерело: &


Срібний реліз (на рейтинг впливає 50% завантаженого)
 Трекер:    Зареєстрований   

Завантажити / скачати фільм українською



відео для новачків



 Зареєстрований:   2017-01-19 04:19
 Розмір:   1.98 GB 
 Оцінка фільму:   6.2/10 (Голосів: 27)
   
Інші релізи
   Людожер / Ravenous (1999) 720p Ukr/Eng | Sub Eng igor911  3 / 0   5.32 GB   2017-01-19 02:16 
shooka4 
Свій


З нами з: 08.03.09
Востаннє: 19.07.17
Повідомлень: 60

2017-01-19 12:27  
Музика цікава у фільмі
boroznaya 
VIP


З нами з: 02.11.12
Востаннє: 20.07.17
Повідомлень: 2237

2017-05-10 12:15  
Не шедевр, звісно, але дивитись можна.
Ваш часовий пояс: GMT + 2 Години

Нова тема   Відповісти