Віддзеркалення / The Broken (2008) 720p Ukr/Eng | Sub Eng

Нові коментарі

Нова тема   Відповісти
Останній раз роздавалося mirkinoid (2017-08-21)
Автор Повідомлення
staf777 
Відео Гуртом - підтримка та поширення
Відео Гуртом - підтримка та поширення


З нами з: 16.11.16
Востаннє: 16.08.17
Повідомлень: 522

2017-01-18 15:25  
Віддзеркалення / The Broken (2008) 720p Ukr/Eng | Sub Eng

Віддзеркалення / The Broken (2008) 720p Ukr/Eng | Sub Eng
Оригінальний постер

Віддзеркалення / The Broken (2008) 720p Ukr/Eng | Sub Eng
Жанр: жахи, трилер, драма
Країна: Франція, Великобританія



Кінокомпанія: Gaumont
Режисер: Шон Елліс
Актори: Лена Хеді, Ульрих Томсен, Мелвіл Попад, Мішель Дункан, Еш Ньюман

Сюжет:
Коли за святковою вечерею розбилося старе дзеркало, звичний світ Джини перевернувся. Повертаючись наступного дня додому, вона раптом побачила себе в своїй машині. Приголомшена цим, вона слідує за загадковою незнайомкою до її будинку. З цієї миті все життя Джини поставлене під сумнів. Світ, в який вона потрапляє, набагато страшніший за нічні кошмари.


Тривалість: 01:27:59
Якість: 720p
Відео:
кодек:
розмір кадру: 1280x544
бітрейт: 5581 кб/с

Аудіо # 1:
мова: українська
переклад: багатоголосий закадровий
кодек: 5.1
бітрейт: 448 кб/с

Аудіо # 2:
мова: англійська
переклад: оригінал
кодек: 5.1
бітрейт: 1510 кб/с

Субтитри:
мова: англійська
тип: програмні (м'які)
формат: *.srt
Info
General
Unique ID : 220854264979764043449721990649945989594 (0xA626FBF64D3DE8E3A42364C66C7321DA)
Complete name : E:\HDCLUB\The Broken (2008) [Ukr,Eng sub.Eng] 720p [Hurtom].
Format :
Format version : Version 4 / Version 2
File size : 4.64 GiB
Duration : 1h 28mn
Overall bit rate : 7 540 Kbps
Movie name : The Broken (2008) [Ukr,Eng sub.Eng] 720p [Hurtom]
Encoded date : UTC 2017-01-18 10:52:31
Writing application : mkvmerge v9.6.0 ('Slave To Your Mind') 64bit
Writing library : libebml v1.3.4 + libmatroska v1.4.5
DURATION : 01:20:25.246000000
NUMBER_OF_FRAMES : 437
NUMBER_OF_BYTES : 13578
_STATISTICS_WRITING_APP : mkvmerge v9.6.0 ('Slave To Your Mind') 64bit
_STATISTICS_WRITING_DATE_UTC : 2017-01-18 10:52:31
_STATISTICS_TAGS : BPS DURATION NUMBER_OF_FRAMES NUMBER_OF_BYTES

Video
ID : 1
Format : AVC
Format/Info : Advanced Video Codec
Format profile : [email protected]
Format settings, CABAC : Yes
Format settings, ReFrames : 2 frames
Codec ID : V_MPEG4/ISO/AVC
Duration : 1h 28mn
Bit rate : 5 581 Kbps
Width : 1 280 pixels
Height : 544 pixels
Display aspect ratio : 2.35:1
Frame rate mode : Constant
Frame rate : 24.000 fps
Color space : YUV
Chroma subsampling : 4:2:0
Bit depth : 8 bits
Scan type : Progressive
Bits/(Pixel*Frame) : 0.334
Stream size : 3.34 GiB (72%)
Title : Release for Hurtom
Writing library : core 72 r1222 d0ee6f8
Encoding settings : cabac=1 / ref=1 / deblock=0:0:0 / analyse=0x3:0x133 / me=esa / subme=9 / psy=1 / psy_rd=1.0:0.0 / mixed_ref=0 / me_range=24 / chroma_me=1 / trellis=0 / 8x8dct=1 / cqm=0 / deadzone=21,11 / chroma_qp_offset=-2 / threads=6 / nr=0 / decimate=1 / mbaff=0 / bframes=3 / b_pyramid=0 / b_adapt=2 / b_bias=0 / direct=3 / wpredb=1 / keyint=240 / keyint_min=24 / scenecut=40 / rc_lookahead=0 / rc=2pass / mbtree=0 / bitrate=5581 / ratetol=1.0 / qcomp=0.60 / qpmin=10 / qpmax=51 / qpstep=4 / cplxblur=20.0 / qblur=0.5 / vbv_maxrate=50000 / vbv_bufsize=50000 / ip_ratio=1.40 / pb_ratio=1.30 / aq=1:1.00
Language : English
Default : Yes
Forced : Yes
DURATION : 01:27:59.963000000
NUMBER_OF_FRAMES : 126719
NUMBER_OF_BYTES : 3683498137
_STATISTICS_WRITING_APP : mkvmerge v9.6.0 ('Slave To Your Mind') 64bit
_STATISTICS_WRITING_DATE_UTC : 2017-01-18 10:52:31
_STATISTICS_TAGS : BPS DURATION NUMBER_OF_FRAMES NUMBER_OF_BYTES

Audio #1
ID : 2
Format : AC-3
Format/Info : Audio Coding 3
Mode extension : CM (complete main)
Format settings, Endianness : Big
Codec ID : A_AC3
Duration : 1h 28mn
Bit rate mode : Constant
Bit rate : 448 Kbps
Channel(s) : 6 channels
Channel positions : Front: L C R, Side: L R, LFE
Sampling rate : 48.0 KHz
Bit depth : 16 bits
Compression mode : Lossy
Stream size : 282 MiB (6%)
Title : 5.1 448 Kbps [UA-MVO, R5]
Language : Ukrainian
Default : Yes
Forced : Yes

Audio #2
ID : 3
Format :
Format/Info : Digital Theater Systems
Mode : 16
Format settings, Endianness : Big
Codec ID : A_DTS
Duration : 1h 28mn
Bit rate mode : Constant
Bit rate : 1 510 Kbps
Channel(s) : 6 channels
Channel positions : Front: L C R, Side: L R, LFE
Sampling rate : 48.0 KHz
Bit depth : 24 bits
Compression mode : Lossy
Stream size : 950 MiB (20%)
Title : 5.1 1509 Kbps [Оriginal]
Language : English
Default : No
Forced : No

Text
ID : 4
Format : UTF-8
Codec ID : S_TEXT/UTF8
Codec ID/Info : UTF-8 Plain Text
Language : English
Default : No
Forced : No
Скріншоти



Джерело: &
Подяка за постер thefir
Особиста оцінка: 0 - не дивився


 Трекер:    Зареєстрований   

Завантажити / скачати фільм українською



відео для новачків



 Зареєстрований:   2017-01-18 15:39
 Розмір:   4.64 GB 
 Оцінка фільму:   7.4/10 (Голосів: 7)
   
Інші релізи
   Віддзеркалення / The Broken (2008) Tarasyk  3 / 0   1.46 GB   2010-03-04 15:14 
380983801076 
Свій


З нами з: 30.03.12
Востаннє: 21.08.17
Повідомлень: 134

2017-01-18 21:19  
Страшніший за "Дзеркала"?
11FrYkT 
Модератор відео


З нами з: 20.02.11
Востаннє: 20.08.17
Повідомлень: 3807

2017-01-19 20:03  
staf777 написано:
/ ref=1 /


Цитата:
Параметри кодування мають відповідати хоча б me=umh, subme=7, ref=3

staf777 
Відео Гуртом - підтримка та поширення
Відео Гуртом - підтримка та поширення


З нами з: 16.11.16
Востаннє: 16.08.17
Повідомлень: 522

2017-01-19 20:54  
11FrYkT
Вибачте але я не спец в таких справах - Ви мені скажіть що тепер робити

11FrYkT 
Модератор відео


З нами з: 20.02.11
Востаннє: 20.08.17
Повідомлень: 3807

2017-01-19 21:03  
staf777 , знайти відео в якому параметри кодування будуть відповідати мінімальним правилам, якщо вже не буде то тоді будемо щось думати
staf777 
Відео Гуртом - підтримка та поширення
Відео Гуртом - підтримка та поширення


З нами з: 16.11.16
Востаннє: 16.08.17
Повідомлень: 522

2017-01-19 21:18  
11FrYkT написано:
The Broken

Тільки один реліз 720p на HDClub ось цей- вчора схопив троян злетіла вінда втратив майже 900 активних торрентор вагою 8 Тб тепер по російським сайтам і іншим не лазию тільки Толока і HDClub

Electroz 
Відео Гуртом - підтримка та поширення
Відео Гуртом - підтримка та поширення


З нами з: 18.09.14
Востаннє: 20.08.17
Повідомлень: 1492

2017-01-19 21:21  
На рутрекері:
Цитата:
Encoding settings : / ref=5 / me=umh / subme=9 / bframes=3 /

staf777 
Відео Гуртом - підтримка та поширення
Відео Гуртом - підтримка та поширення


З нами з: 16.11.16
Востаннє: 16.08.17
Повідомлень: 522

2017-01-19 22:18  
Немає там такого релізу
staf777 
Відео Гуртом - підтримка та поширення
Відео Гуртом - підтримка та поширення


З нами з: 16.11.16
Востаннє: 16.08.17
Повідомлень: 522

2017-01-20 17:57  
Electroz написано:
The Broken (2008) 720p

Там один реліз і ось його дані
Библиотека кодирования : core 72 r1222 d0ee6f8
Настройки программы : cabac=1 / ref=1 / deblock=0:0:0 / analyse=0x3:0x133 / me=esa / subme=9 / psy=1 / psy_rd=1.0:0.0 / mixed_ref=0 / me_range=24 / chroma_me=1 / trellis=0 / 8x8dct=1 / cqm=0 / deadzone=21,11 / chroma_qp_offset=-2 / threads=6 / nr=0 / decimate=1 / mbaff=0 / bframes=3 / b_pyramid=0 / b_adapt=2 / b_bias=0 / direct=3 / wpredb=1 / keyint=240 / keyint_min=24 / scenecut=40 / rc_lookahead=0 / rc=2pass / mbtree=0 / bitrate=5581 / ratetol=1.0 / qcomp=0.60 / qpmin=10 / qpmax=51 / qpstep=4 / cplxblur=20.0 / qblur=0.5 / vbv_maxrate=50000 / vbv_bufsize=50000 / ip_ratio=1.40 / pb_ratio=1.30 / aq=1:1.00
Язык : English

hetzendorf 
Відео Гуртом - підтримка та поширення
Відео Гуртом - підтримка та поширення


З нами з: 23.07.15
Востаннє: 21.08.17
Повідомлень: 402

2017-06-14 00:39  
380983801076 написано:
Страшніший за "Дзеркала"?

Абсолютно ні! Але нудніший на пару порядків. Взагалі повна маячня й лажа @_@ Весь фільм силкувався збагнути, а що, власне, хочуть сказати автори? Що саме вони мають на увазі? Але так і не второпав! >_<
Отже — до топки!
1/10

Ваш часовий пояс: GMT + 2 Години

Нова тема   Відповісти